超人总动员 The Incredibles (2004)

超人总动员 / 超人家族 / 超人特工队 / 超人特攻队 4K UHD原盘 DIY R3简繁中字
The Incredibles 2004 UHD Blu-ray 2160p HEVC TrueHD Atmos 7.1-DIY@TTG[59.64 GB]

◎译  名 超人总动员 / 超人家族 / 超人特工队 / 超人特攻队
◎片  名 The Incredibles
◎年  代 2004
◎产  地 美国
◎类  别 喜剧 / 动作 / 动画 / 冒险
◎语  言 英语 / 西班牙语 / 法语
◎上映日期 2004-11-05(美国) / 2005-01-28(中国大陆)
◎IMDb评分  8.0/10 from 603564 users
◎IMDb链接  http://www.imdb.com/title/tt0317705
◎豆瓣评分 8.2/10 from 275962 users
◎豆瓣链接 https://movie.douban.com/subject/1291577/
◎片  长 115分钟
◎导  演 布拉德·伯德 Brad Bird
◎编  剧 布拉德·伯德 Brad Bird
◎主  演 格雷格·T·尼尔森 Craig T. Nelson
      霍利·亨特 Holly Hunter
      塞缪尔·杰克逊 Samuel L. Jackson
      杰森·李 Jason Lee
      泰迪·牛顿 Teddy Newton
      1040504

◎标  签 动画 | 美国 | pixar | 喜剧 | 动画片 | 皮克斯 | 卡通 | 2004

◎简  介  

  鲍勃是一个超人特工,他惩恶扬善,深受街坊邻里的爱戴。“不可思议”先生就是他的光荣外号。他和另一个超人特工“弹力女超人”相爱,两人结婚后过上平静的生活。
15年过去了,鲍勃已经像普通人一样生活,当上了保险公司的理赔员。然而他心中还是有着技痒之时。当他知道有发明家要展开攻击超人特工队、毁灭人类的计划,鲍勃终于按捺不住了。他要重出江湖,挽救人类护卫地球。但中年的超人已经大腹便便,他和敌人的斗争充满了悬念。鲍勃的妻子也跟丈夫一起投入到这场艰巨的战争中。

◎获奖情况  

  第77届奥斯卡金像奖(2005)
  最佳原创剧本(提名) 布拉德·伯德
  最佳动画长片 布拉德·伯德
  最佳混音(提名) 兰迪·汤姆 / Doc Kane / 加里·利佐
  最佳音效剪辑 兰迪·汤姆 / 迈克尔·席维斯

  第62届金球奖(2005)
  电影类 最佳音乐/喜剧片(提名)

  第32届动画安妮奖(2005)
  最佳动画长片
  最佳导演 布拉德·伯德
  最佳编剧 布拉德·伯德
  最佳配音 布拉德·伯德
  最佳配音(提名) 塞缪尔·杰克逊
  最佳配乐 迈克·吉亚奇诺
  最佳配乐(提名) 迈克·吉亚奇诺
  最佳分镜 Kevin O'Brien
  最佳分镜(提名) Ted Mathot
  最佳艺术指导 卢·罗曼诺
  最佳动画角色 安格斯·麦克莱恩
  最佳动画角色(提名) 约翰·凯世 / 彼得·孙 / Kureha Yokoo
  最佳角色设计 托尼·弗希勒
  最佳角色设计(提名) 泰迪·牛顿
  最佳动画效果 Martin Nguyen

  第14届MTV电影奖(2005)
  MTV电影奖 年度电影(提名)
  MTV电影奖 最佳银幕组合(提名) 格雷格·T·尼尔森 / Spencer Fox / 霍利·亨特 / 莎拉·沃威尔

  第5届美国电影学会奖(2004)
  年度佳片

DISC INFO:

Disc Title:     THE_INCREDIBLES_HDR
Disc Size:      64,037,272,632 bytes
Protection:     AACS2
BD-Java:        Yes
Extras:         Ultra HD
BDInfo:         0.5.8.7 (compatible layout created by DVDFab 10.0.9.9)

PLAYLIST REPORT:

Name:                   00800.MPLS  
Length:                 1:55:18.703 (h:m:s.ms)
Size:                   53,023,930,368 bytes
Total Bitrate:          61.31 Mbps

VIDEO:

Codec                   Bitrate             Description    
-----                   -------             -----------    
MPEG-H HEVC Video       43275 kbps          2160p / 23.976 fps / 16:9 / Main 10 Profile 5.1 High / 4:2:0 / 10 bits / HDR / BT.2020 /

AUDIO:

Codec                           Language        Bitrate         Description    
-----                           --------        -------         -----------    
Dolby Atmos/TrueHD Audio        English         7994 kbps       7.1-Atmos / 48 kHz / 7994 kbps / 24-bit (AC3 Core: 5.1-EX / 48 kHz / 640 kbps)
DTS-HD Master Audio             English         3835 kbps       5.1 / 48 kHz / 3835 kbps / 24-bit (DTS Core: 5.1-ES / 48 kHz / 1509 kbps / 24-bit)
Dolby Digital Audio             English         320 kbps        2.0 / 48 kHz / 320 kbps / Dolby Surround
Dolby Digital Audio             English         320 kbps        2.0 / 48 kHz / 320 kbps / Dolby Surround
Dolby Digital EX Audio          French          640 kbps        5.1-EX / 48 kHz / 640 kbps
Dolby Digital EX Audio          Spanish         640 kbps        5.1-EX / 48 kHz / 640 kbps

SUBTITLES:

Codec                           Language        Bitrate         Description    
-----                           --------        -------         -----------    
Presentation Graphics           English         37.17 kbps                      
Presentation Graphics           French          35.302 kbps                    
Presentation Graphics           Spanish         34.462 kbps                    
Presentation Graphics           English         0.059 kbps                      
Presentation Graphics           Spanish         0.06 kbps                      
Presentation Graphics           Chinese         22.428 kbps                    
Presentation Graphics           Chinese         20.72 kbps                      

FILES:

Name            Time In         Length          Size            Total Bitrate  
----            -------         ------          ----            -------------  
00033.M2TS      0:00:00.000     0:00:26.401     248,973,312     75,442 kbps    
00100.M2TS      0:00:26.401     0:00:58.683     586,248,192     79,919 kbps    
00043.M2TS      0:01:25.084     0:01:27.253     651,165,696     59,703 kbps    
00047.M2TS      0:02:52.338     0:04:01.658     1,824,761,856   60,408 kbps    
00048.M2TS      0:06:53.996     0:00:42.542     298,186,752     56,073 kbps    
00051.M2TS      0:07:36.539     0:02:35.155     1,166,045,184   60,122 kbps    
00052.M2TS      0:10:11.694     0:01:33.093     646,975,488     55,598 kbps    
00055.M2TS      0:11:44.787     0:07:33.995     3,158,218,752   55,652 kbps    
00056.M2TS      0:19:18.782     0:00:30.655     215,844,864     56,327 kbps    
00059.M2TS      0:19:49.438     0:11:12.505     4,871,424,000   57,949 kbps    
00060.M2TS      0:31:01.943     0:02:41.119     1,167,267,840   57,957 kbps    
00063.M2TS      0:33:43.062     0:12:48.017     5,714,528,256   59,524 kbps    
00064.M2TS      0:46:31.079     0:00:41.666     299,341,824     57,473 kbps    
00067.M2TS      0:47:12.746     0:13:46.534     6,576,691,200   63,655 kbps    
00068.M2TS      1:00:59.280     0:00:25.942     193,492,992     59,668 kbps    
00071.M2TS      1:01:25.223     0:00:45.795     448,665,600     78,376 kbps    
00075.M2TS      1:02:11.018     0:06:23.466     2,858,274,816   59,630 kbps    
00076.M2TS      1:08:34.485     0:00:27.986     209,872,896     59,993 kbps    
00079.M2TS      1:09:02.471     0:36:33.149     16,429,400,064  59,929 kbps    
00080.M2TS      1:45:35.620     0:00:29.112     203,102,208     55,811 kbps    
00083.M2TS      1:46:04.733     0:01:29.422     638,521,344     57,123 kbps    
00084.M2TS      1:47:34.155     0:02:14.509     1,134,581,760   67,479 kbps    
00087.M2TS      1:49:48.665     0:05:30.038     3,482,345,472   84,410 kbps      

115网盘下载

超人总动员 / 超人家族 / 超人特工队 / 超人特攻队 4K UHD原盘 DIY R3简繁中字
The Incredibles 2004 UHD Blu-ray 2160p HEVC TrueHD Atmos 7.1-DIY@TTG[59.64 GB]

此内容查看价格为10蓝光币,VIP免费,请先
本站原盘资源均含有中文字幕,仅支持115网盘VIP用户下载!

本站提供的所有影视作品均是在网上搜集,任何涉及商业盈利目的均不得使用,否则产生的一切后果将由您自己承担!
该下载内容仅做宽带测试使用,请在下载后24小时内删除。请购买正版!

0

评论0

请先

显示验证码
没有账号? 注册  忘记密码?