月光光心慌慌 Halloween (1978)

月光光心慌慌 / 万圣节 / 抓鬼节 / John Carpenter's Halloween [4K UHD原盘DIY/简繁英字幕]
Halloween 1978 2160p UHD Blu-ray HEVC TrueHD Atmos 7 1-GeekArt@CHDBits[65.33GB]

◎译   名  月光光心慌慌 / John Carpenter's Halloween / 万圣节 / 抓鬼节
◎片   名  Halloween
◎年   代  1978
◎产   地  美国
◎类   别  惊悚 / 恐怖
◎语   言  英语
◎上映 日期  1978-10-25
◎IMDb评分  7.7/10 from 265,289 users
◎IMDb链接  https://www.imdb.com/title/tt0077651/
◎豆瓣 评分  6.7/10 from 13935 users
◎豆瓣 链接  https://movie.douban.com/subject/1299586/
◎烂 番 茄   96%
◎Metacritic   87/100
◎片   长  91 分钟
◎导   演  约翰·卡朋特 John Carpenter
◎编   剧  约翰·卡朋特 John Carpenter / 黛布拉·希尔 Debra Hill
◎主   演  唐纳德·普利森斯 Donald Pleasence
        杰米·李·柯蒂斯 Jamie Lee Curtis
        南希·凯斯 Nancy Kyes
        P·J·索尔丝 P.J. Soles
        Charles Cyphers Charles Cyphers
        Darla Rae Darla Rae

◎标  签 恐怖 | 惊悚 | 美国 | 2018 | 恐怖片 | 万圣节系列 | 犯罪 | 悬疑
◎简  介  
  在万圣节前夜,杀人狂迈克尔·麦尔斯逃走了,开始前往伊利诺伊州的哈登菲尔德,这是他最原始的屠杀地。一直负责治疗迈克尔·麦尔斯的精神病专家兰比尔·萨坦博士,警长弗兰克·霍金斯在疯狂寻找迈克尔·麦尔斯的下落,后者继续着他的残杀,并无情地接近着上次屠杀中唯一的幸存者劳瑞。劳瑞死里逃生所带来的创伤与压力,使她在精神上伤痕累累并开始疑神疑鬼,这也导致女儿凯伦与她渐渐疏远 。
◎获奖情况  
  第43届多伦多国际电影节(2018)
  观众选择奖 午夜疯狂单元(提名)
  第24届美国评论家选择电影奖(2019)
  最佳科幻/恐怖片(提名)

DISC INFO:
Disc Title:     Halloween
Disc Label:     HDBits
Disc Size:      70,148,949,637 bytes
Protection:     AACS2
Extras:         Ultra HD, BD-Java
BDInfo:         0.7.5.7
PLAYLIST REPORT:
Name:                   00002.MPLS
Length:                 1:31:46.333 (h:m:s.ms)
Size:                   69,128,815,680 bytes
Total Bitrate:          100.44 Mbps
(*) Indicates included stream hidden by this playlist.
VIDEO:
Codec                   Bitrate             Description     
-----                   -------             -----------     
MPEG-H HEVC Video       71211 kbps          2160p / 24 fps / 16:9 / Main 10 @ Level 5.1 @ High / 10 bits / HDR10 / BT.2020
* MPEG-H HEVC Video     11793 kbps          1080p / 24 fps / 16:9 / Main 10 @ Level 5.1 @ High / 10 bits / Dolby Vision / BT.2020
AUDIO:
Codec                           Language        Bitrate         Description     
-----                           --------        -------         -----------     
DTS-HD Master Audio             English         1972 kbps       2.0 / 48 kHz /  1972 kbps / 24-bit (DTS Core: 2.0 / 48 kHz /  1509 kbps / 24-bit)
DTS-HD Master Audio             English         3957 kbps       5.1 / 48 kHz /  3957 kbps / 24-bit (DTS Core: 5.1 / 48 kHz /  1509 kbps / 24-bit)
Dolby TrueHD/Atmos Audio        English         4914 kbps       7.1 / 48 kHz /  4530 kbps / 24-bit (AC3 Embedded: 5.1 / 48 kHz /   384 kbps / DN -31dB)
Dolby Digital Audio             English         192 kbps        2.0 / 48 kHz /   192 kbps / DN -27dB
Dolby Digital Audio             English         192 kbps        2.0 / 48 kHz /   192 kbps / DN -27dB
SUBTITLES:
Codec                           Language        Bitrate         Description     
-----                           --------        -------         -----------     
Presentation Graphics           English         27.060 kbps                     
Presentation Graphics           Chinese         52.545 kbps     简体中文               
Presentation Graphics           Chinese         52.951 kbps     繁体中文               
Presentation Graphics           Chinese         65.841 kbps     简英双语               
Presentation Graphics           Chinese         66.263 kbps     繁英双语               
FILES:
Name            Time In         Length          Size            Total Bitrate   
----            -------         ------          ----            -------------   
00006.M2TS      0:00:00.000     0:00:18.708     173,707,584     73,951         
00005.M2TS      0:00:18.708     0:00:15.291     136,646,976     71,101         
00000.M2TS      0:00:34.000     1:31:12.333     68,818,461,120  100,604

115网盘下载

月光光心慌慌 / 万圣节 / 抓鬼节 / John Carpenter's Halloween [4K UHD原盘DIY/简繁英字幕]
Halloween 1978 2160p UHD Blu-ray HEVC TrueHD Atmos 7 1-GeekArt@CHDBits[65.33GB]

此内容查看价格为10蓝光币,VIP免费,请先
本站原盘资源均含有中文字幕,仅支持115网盘VIP用户下载!

本站提供的所有影视作品均是在网上搜集,任何涉及商业盈利目的均不得使用,否则产生的一切后果将由您自己承担!
该下载内容仅做宽带测试使用,请在下载后24小时内删除。请购买正版!

0

评论0

请先

显示验证码
没有账号? 注册  忘记密码?