阴风阵阵 Suspiria (1977)

阴风阵阵/坐立不安 4K UHD原盘 DiY简繁字幕
Suspiria 1977 2160p USA UHD BluRay HEVC Atmos TrueHD 7.1-DiY@HDHome[70.75 ]

◎译  名 阴风阵阵/坐立不安
◎片  名 Suspiria
◎年  代 1977
◎产  地 意大利
◎类  别 恐怖
◎语  言 意大利语/俄语/英语/德语/拉丁语
◎上映日期 1977-02-01
◎IMDb链接 https://www.imdb.com/title/tt0076786/
◎豆瓣评分 7.4/10 from 11656 users
◎豆瓣链接 https://douban.com/subject/1296332/
◎片  长 98分钟
◎导  演 达里奥·阿基多 Dario Argento
◎编  剧 达里奥·阿基多 Dario Argento / 达里亚·尼科洛迪 Daria Nicolodi
◎主  演 杰西卡·哈珀 Jessica Harper
      斯蒂芬妮娅·卡西尼 Stefania Casini
      弗拉维奥·布奇 Flavio Bucci
      米盖尔·波斯 Miguel Bosé
      芭芭拉·马尼奥尔菲 Barbara Magnolfi
      苏珊娜·亚维科利 Susanna Javicoli
      埃娃·阿克森 Eva Axén
      鲁道夫·申德勒 Rudolf Schündler
      乌多·基尔 Udo Kier
      阿莉达·瓦利 Alida Valli
      琼·贝内特 Joan Bennett
      玛格丽特·霍洛维茨 Margherita Horowitz
      弗兰卡·斯坎列蒂 Franca Scagnetti
      达里奥·阿基多 Dario Argento
      雷娜塔·扎明戈 Renata Zamengo
      达里亚·尼科洛迪 Daria Nicolodi

◎标  签 恐怖 | 意大利 | 惊悚 | 经典 | 意大利电影 | 1977 | 1970s | 恐怖

◎简  介

  
  在一场瓢泼大雨之中,孱弱的女子苏西(杰西卡·哈珀 Jessica Harper 饰)孤身一人来到德国,前往那里的芭蕾舞学校学习舞蹈。刚刚抵达的苏西看到一位女子从学校的大门里狂奔而出,口中念念有词,随后消失在了雨幕之中,让苏西没有想到的是,第二天,她便听闻了这位女子的死讯。
  
  很快,苏西便发现这所学校里的同学并不如她想象的那样友善,她的室友更是一个唯利是图的女人,而苏西结交到的唯一一个朋友,竟然同先前死去的女生是好友。在她的口中,苏西听说了学校里女巫作祟诅咒横行的传言,而接连出现的诡异现象亦让苏西慢慢察觉到,在这所阴森的学校中,隐藏着不可告人的秘密。

DISC INFO:

Disc Title:     Suspiria.1977.2160p.USA.UHD.BluRay.HEVC.Atmos.TrueHD.7.1-DiY@HDHome
Disc Size:      75,966,770,319 bytes
Protection:     AACS2
Extras:         Ultra HD
BDInfo:         0.7.5.6 (compatible layout created by DVDFab 11.0.6.1)

PLAYLIST REPORT:

Name:                   00003.MPLS  
Length:                 1:38:47.296 (h:m:s.ms)
Size:                   74,047,543,296 bytes
Total Bitrate:          99.94 Mbps

VIDEO:

Codec                   Bitrate             Description    
-----                   -------             -----------    
MPEG-H HEVC Video       80139 kbps          2160p / 23.976 fps / 16:9 / Main 10 @ Level 5.1 @ High / 4:2:0 / 10 bits / 1000nits / HDR10 / BT.2020

AUDIO:

Codec                           Language        Bitrate         Description    
-----                           --------        -------         -----------    
Dolby TrueHD/Atmos Audio        English         4796 kbps       7.1-Atmos / 48 kHz / 4796 kbps / 24-bit (AC3 Core: 5.1-EX / 48 kHz / 640 kbps)
DTS-HD Master Audio             English         4828 kbps       4.0 / 96 kHz / 4828 kbps / 24-bit (DTS Core: 4.0 / 48 kHz / 768 kbps / 24-bit)
DTS-HD Master Audio             Italian         4034 kbps       5.1 / 48 kHz / 4034 kbps / 24-bit (DTS Core: 5.1 / 48 kHz / 768 kbps / 24-bit)
Dolby Digital Audio             English         192 kbps        2.0 / 48 kHz / 192 kbps
Dolby Digital Audio             English         192 kbps        2.0 / 48 kHz / 192 kbps

SUBTITLES:

Codec                           Language        Bitrate         Description    
-----                           --------        -------         -----------    
Presentation Graphics           English         28.883 kbps                    
Presentation Graphics           English         24.297 kbps                    
Presentation Graphics           Chinese         19.084 kbps                    
Presentation Graphics           Chinese         19.566 kbps                    

FILES:

Name            Time In         Length          Size            Total Bitrate  
----            -------         ------          ----            -------------  
40000.M2TS      0:00:00.000     0:01:29.672     331,708,416     29,592 kbps    
40002.M2TS      0:01:29.672     1:35:41.652     72,774,359,040  101,398 kbps    
40003.M2TS      1:37:11.325     0:01:35.970     941,475,840     78,480 kbps    

阴风阵阵/坐立不安 [4K UHD原盘 DiY简繁字幕]
Suspiria 1977 2160p USA UHD BluRay HEVC Atmos TrueHD 7.1-DiY@HDHome[70.75GB]

资源下载此资源下载价格为10蓝光币,VIP免费,请先
本站原盘资源均含有中文字幕,仅支持115网盘VIP用户下载!
资源下载
下载价格10 蓝光币
VIP免费
本站原盘资源均含有中文字幕,仅支持115网盘VIP用户下载!

本站提供的所有影视作品均是在网上搜集,任何涉及商业盈利目的均不得使用,否则产生的一切后果将由您自己承担!
该下载内容仅做宽带测试使用,请在下载后24小时内删除。请购买正版!

0

评论0

请先

显示验证码
没有账号? 注册  忘记密码?