王朝 第一季 Dynasties Season 1 (2018)

王朝 第一季 全5集[4K UHD原盘DIY简繁/简繁双语字幕]全景声版 ISO封装
Dynasties 2018 2160p USA UHD Blu-ray HEVC TrueHD Atmos 7.1-wezjh@OurBits [117.27GB]

◎译  名 王朝/The Rise and Fall of Animal Families
◎片  名 Dynasties
◎年  代 2018
◎产  地 英国
◎类  别 纪录片
◎语  言 英语
◎上映日期 2018-11-12(中国大陆)
◎IMDb评分 9.6/10 from 533 users
◎IMDb链接 https://www.imdb.com/title/tt9130692/
◎豆瓣评分 9.7/10 from 4,601 users
◎豆瓣链接 https://movie.douban.com/subject/27182707/
◎集  数 5
◎片  长 60分钟
◎导  演 斯蒂芬·莫斯 Stephen Moss
◎主  演 戴维·阿滕伯勒 David Attenborough

◎简  介

  王朝是一个新的具有里程碑意义的系列。这个系列将记录世界上最具标志性的动物的故事,在世界最知名的地点,他们为了维系自己的王朝而努力奋斗着。在每一集里面,他们每个个体的故事都会通过激烈的、引人入胜的戏剧情节展开。

DISC INFO:   DISC?1

Disc Title:     Dynasties 2018 S01 D01 2160p USA UHD Blu-ray HEVC TrueHD Atmos 7.1-wezjh@OurBits
Disc Size:      65,289,189,376 bytes
Protection:     AACS2
BD-Java:        No
Extras:         Ultra HD
BDInfo:         0.5.8.7 (compatible layout created by DVDFab 11.0.1.0)

PLAYLIST REPORT:

Name:                   00022.MPLS  
Length:                 2:37:19.471 (h:m:s.ms)
Size:                   63,721,390,080 bytes
Total Bitrate:          54.00 Mbps

VIDEO:

Codec                   Bitrate             Desc‍ription     
-----                   -------             -----------     
MPEG-H HEVC Video       42806 kbps          2160p / 23.976 fps / 16:9 / Main 10 Profile 5.1 High / 4:2:0 / 10 bits / HDR / BT.2020 / 

AUDIO:

Codec                           Language        Bitrate         Desc‍ription     
-----                           --------        -------         -----------     
Dolby Atmos/TrueHD Audio        English         5326 kbps       7.1-Atmos / 48 kHz / 5326 kbps / 24-bit (AC3 Core: 5.1-EX / 48 kHz / 640 kbps)
DTS-HD Master Audio             English         2166 kbps       5.1 / 48 kHz / 2166 kbps / 16-bit (DTS Core: 5.1 / 48 kHz / 1509 kbps / 16-bit)

SUBTITLES:

Codec                           Language        Bitrate         Desc‍ription     
-----                           --------        -------         -----------     
Presentation Graphics           English         18.002 kbps                     
Presentation Graphics           Chinese         9.233 kbps          简体           
Presentation Graphics           Chinese         9.667 kbps          繁体           
Presentation Graphics           Chinese         17.589 kbps         简英            
Presentation Graphics           Chinese         18.022 kbps         繁英            

FILES:

Name            Time In         Length          Size            Total Bitrate   
----            -------         ------          ----            -------------   
00287.M2TS      0:00:00.000     0:52:59.134     21,564,291,072  54,264 kbps     
00285.M2TS      0:52:59.134     0:51:49.314     20,550,967,296  52,875 kbps     
00286.M2TS      1:44:48.448     0:52:31.022     21,606,131,712  54,854 kbps    

DISC INFO:     DISC?2

Disc Title:     Dynasties 2018 S01 D02 2160p USA UHD Blu-ray HEVC TrueHD Atmos 7.1-wezjh@OurBits
Disc Size:      60,629,645,312 bytes
Protection:     AACS2
BD-Java:        No
Extras:         Ultra HD
BDInfo:         0.5.8.7 (compatible layout created by DVDFab 11.0.1.0)

PLAYLIST REPORT:

Name:                   00022.MPLS  
Length:                 1:42:59.047 (h:m:s.ms)
Size:                   47,808,688,128 bytes
Total Bitrate:          61.90 Mbps

VIDEO:

Codec                   Bitrate             Desc‍ription     
-----                   -------             -----------     
MPEG-H HEVC Video       49877 kbps          2160p / 23.976 fps / 16:9 / Main 10 Profile 5.1 High / 4:2:0 / 10 bits / HDR / BT.2020 / 

AUDIO:

Codec                           Language        Bitrate         Desc‍ription     
-----                           --------        -------         -----------     
DTS-HD Master Audio             English         2317 kbps       5.1 / 48 kHz / 2317 kbps / 16-bit (DTS Core: 5.1 / 48 kHz / 1509 kbps / 16-bit)
Dolby Atmos/TrueHD Audio        English         5680 kbps       7.1-Atmos / 48 kHz / 5680 kbps / 24-bit (AC3 Core: 5.1-EX / 48 kHz / 640 kbps)

SUBTITLES:

Codec                           Language        Bitrate         Desc‍ription     
-----                           --------        -------         -----------     
Presentation Graphics           English         20.629 kbps                     
Presentation Graphics           Chinese         10.462 kbps         简体            
Presentation Graphics           Chinese         10.861 kbps         繁体            
Presentation Graphics           Chinese         20.238 kbps         简英            
Presentation Graphics           Chinese         20.639 kbps         繁英            

FILES:

Name            Time In         Length          Size            Total Bitrate   
----            -------         ------          ----            -------------   
00000.M2TS      0:00:00.000     0:51:43.016     23,853,078,528  61,496 kbps     
00001.M2TS      0:51:43.016     0:51:16.031     23,955,609,600  62,302 kbps

115网盘下载

王朝 第一季 全5集[4K UHD原盘DIY简繁/简繁双语字幕]全景声版 ISO封装
Dynasties 2018 2160p USA UHD Blu-ray HEVC TrueHD Atmos 7.1-wezjh@OurBits [117.27GB]

此内容查看价格为10蓝光币,VIP免费,请先
本站原盘资源均含有中文字幕,仅限115网盘VIP用户下载!

此内容查看价格为10蓝光币,VIP免费,请先
本站原盘资源均含有中文字幕,仅限115网盘VIP用户下载!

本站提供的所有影视作品均是在网上搜集,任何涉及商业盈利目的均不得使用,否则产生的一切后果将由您自己承担!
该下载内容仅做宽带测试使用,请在下载后24小时内删除。请购买正版!

0

评论0

请先

显示验证码
没有账号? 注册  忘记密码?