玩具总动员 Toy Story (1995)

[玩具总动员 1995]【4K UHD原盘DIY 国粤语+R3简繁中字 修正黑屏问题】
Toy.Story.1995.UHD.BluRay.2160p.HEVC.TrueHD.7.1-DIY@TTG [57.86G]

◎译  名 玩具总动员 / 反斗奇兵(港) / 玩具的故事
◎片  名 Toy Story
◎年  代 1995
◎产  地 美国
◎类  别 喜剧 / 动画 / 家庭
◎语  言 英语
◎上映日期 1995-11-22(美国)
◎IMDb评分  8.3/10 from 805011 users
◎IMDb链接  http://www.imdb.com/title/tt0114709
◎豆瓣评分 8.4/10 from 216765 users
◎豆瓣链接 https://movie.douban.com/subject/1291575/
◎片  长 81分钟
◎导  演 约翰·拉塞特 John Lasseter
◎编  剧 乔斯·韦登 Joss Whedon / 安德鲁·斯坦顿 Andrew Stanton / Joel Cohen / Alec Sokolow
◎主  演 汤姆·汉克斯 Tom Hanks
      蒂姆·艾伦 Tim Allen
      唐·里克斯 Don Rickles
      吉姆·法尼 Jim Varney

◎标  签 动画 | 美国 | 迪斯尼 | pixar | 玩具总动员 | 动画片 | 美国电影 | DISNEY

◎简  介  

  小主人家境富裕,拥有一屋的玩具。其中他最爱的是牛仔玩偶胡迪,胡迪因此成为众玩具的“老大”。当小主人出门在外时,一屋的玩具自成世界,过着自己的生活。一天,小主人带回了一个新的玩意:太空战警巴斯光年。巴斯光年长相新奇,功能先进,令小主人爱不释手,威胁到了胡迪的地位。胡迪千方百计要赶走巴斯,一不小心二人一起掉出了房间窗口外,邻居的恶狗在狂吠,邻居的小孩是一个玩具虐待狂,胡迪巴斯能不能化敌为友,消灾解难?

◎获奖情况  

  第68届奥斯卡金像奖(1996)
  最佳原创剧本(提名) 乔斯·韦登 / 约翰·拉塞特 / 彼特·道格特 / 乔·兰福特 / 安德鲁·斯坦顿 / 乔尔·科恩 / 亚历克·索科洛
  音乐/喜剧片最佳原创配乐(提名) 兰迪·纽曼
  最佳原创歌曲(提名) 兰迪·纽曼
  特别成就奖 约翰·拉塞特

  第24届动画安妮奖(1996)
  最佳动画长片
  最佳导演 约翰·拉塞特
  最佳编剧 乔斯·韦登 / 安德鲁·斯坦顿 / 亚历克·索科洛 / 乔尔·科恩
  最佳配音(提名) 汤姆·汉克斯
  最佳配乐 兰迪·纽曼
  最佳制作 邦妮·阿诺德 / Ralph Guggenheim
  最佳艺术指导 拉夫·埃格尔斯顿
  最佳个人成就 彼特·道格特
  最佳动画技术成果

DISC INFO:

Disc Title:     Toy Story - Ultra HD™
Disc Label:     TOY_STORY
Disc Size:      62,099,512,479 bytes
Protection:     AACS2
Extras:         Ultra HD, BD-Java
BDInfo:         0.7.5.5

PLAYLIST REPORT:

Name:                   00800.MPLS
Length:                 1:21:06.027 (h:m:s.ms)
Size:                   48,311,074,560 bytes
Total Bitrate:          79.43 Mbps

VIDEO:

Codec                   Bitrate             Description    
-----                   -------             -----------    
MPEG-H HEVC Video       58103 kbps          2160p / 23.976 fps / 16:9 / Main 10 @ Level 5.1 @ High / 10 bits / HDR10 / BT.2020

AUDIO:

Codec                           Language        Bitrate         Description    
-----                           --------        -------         -----------    
Dolby TrueHD/Atmos Audio        English         8275 kbps       7.1 / 48 kHz /  7635 kbps / 24-bit (AC3 Embedded: 5.1-EX / 48 kHz /   640 kbps / DN -27dB)
Dolby Digital EX Audio          English         640 kbps        5.1-EX / 48 kHz /   640 kbps / DN -27dB
Dolby Digital Audio             English         320 kbps        2.0 / 48 kHz /   320 kbps / DN -27dB
Dolby Digital Audio             English         320 kbps        2.0 / 48 kHz /   320 kbps / DN -27dB
Dolby Digital EX Audio          French          640 kbps        5.1-EX / 48 kHz /   640 kbps / DN -27dB
Dolby Digital EX Audio          Spanish         640 kbps        5.1-EX / 48 kHz /   640 kbps / DN -27dB
DTS-HD Master Audio             Japanese        3941 kbps       5.1-ES / 48 kHz /  3941 kbps / 24-bit (DTS Core: 5.1-ES / 48 kHz /  1509 kbps / 24-bit / DN -4dB)

Dolby Digital EX Audio          Chinese         384 kbps        5.1-EX / 48 kHz /   384 kbps / DN -27dB  國語(台配)
Dolby Digital EX Audio          Chinese         384 kbps        5.1-EX / 48 kHz /   384 kbps / DN -27dB  粤语
Dolby Digital Audio             Chinese         448 kbps        5.1 / 48 kHz /   448 kbps / DN -27dB  普通话

SUBTITLES:

Codec                           Language        Bitrate         Description    
-----                           --------        -------         -----------    
Presentation Graphics           English         52.656 kbps                    
Presentation Graphics           English         41.430 kbps                    
Presentation Graphics           French          30.696 kbps                    
Presentation Graphics           Spanish         38.911 kbps                    
Presentation Graphics           Japanese        24.919 kbps                    
Presentation Graphics           Japanese        0.016 kbps                      
Presentation Graphics           Chinese         25.385 kbps   对应台配发音r3简体                  
Presentation Graphics           Chinese         29.353 kbps   对应台配发音r3繁體                    

FILES:

Name            Time In         Length          Size            Total Bitrate  
----            -------         ------          ----            -------------  
00055.M2TS      0:00:00.000     0:02:03.081     1,177,903,296   76,509          
00056.M2TS      0:02:03.081     0:02:14.259     1,332,222,912   79,333          
00057.M2TS      0:04:17.340     0:13:11.081     7,706,516,736   77,926          
00058.M2TS      0:17:28.422     0:00:20.478     177,476,928     69,050          
00059.M2TS      0:17:48.901     0:08:48.569     5,202,124,224   78,723          
00066.M2TS      0:26:37.470     0:00:18.852     188,415,360     79,603          
00067.M2TS      0:26:56.322     0:19:38.135     11,947,910,208  81,125          
00068.M2TS      0:46:34.458     0:00:50.800     513,040,704     80,660          
00069.M2TS      0:47:25.259     0:29:42.405     17,689,072,128  79,390          
00070.M2TS      1:17:07.664     0:03:33.004     2,144,361,984   80,506          
00072.M2TS      1:20:40.669     0:00:25.358     232,030,080     72,959

115网盘下载

[玩具总动员 1995]【4K UHD原盘DIY 国粤语+R3简繁中字 修正黑屏问题】
Toy.Story.1995.UHD.BluRay.2160p.HEVC.TrueHD.7.1-DIY@TTG [57.86G]

此内容查看价格为10蓝光币,VIP免费,请先
本站原盘资源均含有中文字幕,仅限115网盘VIP用户下载!

本站提供的所有影视作品均是在网上搜集,任何涉及商业盈利目的均不得使用,否则产生的一切后果将由您自己承担!
该下载内容仅做宽带测试使用,请在下载后24小时内删除。请购买正版!

0

评论0

请先

显示验证码
没有账号? 注册  忘记密码?