玩具总动员2 Toy Story 2 (1999)

[玩具总动员2][4K UHD原盘DIY 国粤语+R3简繁中字]
Toy.Story.2.1999.UHD.BluRay.2160p.HEVC.TrueHD.7.1-DIY@TTG [53.98G]

◎译  名 玩具总动员2/反斗奇兵2(港)/反斗奇兵续集/玩具的故事2
◎片  名 Toy Story 2
◎年  代 1999
◎产  地 美国
◎类  别 喜剧 / 动画 / 奇幻 / 冒险
◎语  言 英语
◎上映日期 1999-11-24(美国)
◎IMDb评分  7.9/10 from 498633 users
◎IMDb链接  https://www.imdb.com/title/tt0120363/
◎豆瓣评分 8.3/10 from 152,198 users
◎豆瓣链接 https://movie.douban.com/subject/1291574/
◎片  长 92分钟
◎导  演 约翰·拉塞特 John Lasseter / 艾什·布兰农 Ash Brannon / 李·昂克里奇 Lee Unkrich
◎编  剧 约翰·拉塞特 John Lasseter / 彼特·道格特 Pete Docter / 艾什·布兰农 Ash Brannon / 安德鲁·斯坦顿 Andrew Stanton / 萧丽塔 Rita Hsiao / 道格·钱伯林 Doug Chamberlin / 克里斯·韦伯 Chris Webb
◎主  演 汤姆·汉克斯 Tom Hanks
       蒂姆·艾伦 Tim Allen
       琼·库萨克 Joan Cusack
       凯尔希·格兰莫 Kelsey Grammer
       唐·里克斯 Don Rickles
       吉姆·法尼 Jim Varney
       华莱士·肖恩 Wallace Shawn
       约翰·拉岑贝格 John Ratzenberger
       安妮·波茨 Annie Potts
       韦恩·奈特 Wayne Knight
       约翰·莫里斯 John Morris
       劳里·梅特卡夫 Laurie Metcalf
       爱丝黛儿·哈里斯 Estelle Harris
       李·厄米 R. Lee Ermey
       裘蒂·班森 Jodi Benson

◎标  签 动画 | 美国 | 迪斯尼 | pixar | 动画片 | 1999 | DISNEY | 美国电影

◎简  介

  自从上一集牛仔伍迪救回巴斯光年之后,他一直和其他玩具一起快乐的生活在小主人家。一次,小主人参加夏令营去了,伍迪因为破旧而没被带去。留在家里的伍迪恰巧被一个玩具收藏家发现了,认为他是近代最具代表性的玩具。于是将伍迪被偷了出来放在颇富盛名的文化博物馆内展览。在家里所有的玩具 都很担心伍迪,因此巴斯光年自告奋勇去寻找伍迪,但是当他们发现伍迪在展览馆时, 伍迪却似乎不再愿意回去过那平凡的生活……

◎获奖情况

  第72届奥斯卡金像奖  (2000)
  最佳原创歌曲(提名) 兰迪·纽曼
  
  第28届动画安妮奖  (2000)
  最佳动画长片
  最佳导演 艾什·布兰农 / 约翰·拉塞特 / 李·昂克里奇
  最佳编剧 安德鲁·斯坦顿 / 道格·钱伯林 / 彼特·道格特 / 萧丽塔 / 艾什·布兰农 / 克里斯·韦伯 / 约翰·拉塞特
  最佳男配音 蒂姆·艾伦
  最佳女配音 琼·库萨克
  最佳配乐 兰迪·纽曼
  最佳分镜 乔·兰福特 / DanJeup
  最佳艺术指导(提名) WilliamCone / JimPearson
  最佳动画角色(提名) 道格·斯威特兰德

DISC INFO:

Disc Title:     TOY_STORY_2
Disc Size:      57,963,575,296 bytes
Protection:     AACS2
Extras:         Ultra HD, BD-Java
BDInfo:         0.7.5.3 (compatible layout created by DVDFab 11.0.3.4)

PLAYLIST REPORT:

Name:                   00800.MPLS  
Length:                 1:32:24.372 (h:m:s.ms)
Size:                   49,042,231,296 bytes
Total Bitrate:          70.76 Mbps

VIDEO:

Codec                   Bitrate             Description    
-----                   -------             -----------    
MPEG-H HEVC Video       50663 kbps          2160p / 23.976 fps / 16:9 / Main 10 @ Level 5.1 @ High / 4:2:0 / 10 bits / HDR10 / BT.2020 /

AUDIO:

Codec                           Language        Bitrate         Description    
-----                           --------        -------         -----------    
Dolby TrueHD/Atmos Audio        English         7700 kbps       7.1-Atmos / 48 kHz / 7700 kbps / 24-bit (AC3 Core: 5.1-EX / 48 kHz / 640 kbps)
Dolby Digital EX Audio          English         640 kbps        5.1-EX / 48 kHz / 640 kbps
Dolby Digital Audio             English         320 kbps        2.0 / 48 kHz / 320 kbps
Dolby Digital Audio             English         320 kbps        2.0 / 48 kHz / 320 kbps
Dolby Digital EX Audio          French          640 kbps        5.1-EX / 48 kHz / 640 kbps
Dolby Digital EX Audio          Spanish         640 kbps        5.1-EX / 48 kHz / 640 kbps
DTS-HD Master Audio             Japanese        3776 kbps       5.1 / 48 kHz / 3776 kbps / 24-bit (DTS Core: 5.1-ES / 48 kHz / 1509 kbps / 24-bit)
Dolby Digital Audio             Chinese         384 kbps        5.1 / 48 kHz / 384 kbps
Dolby Digital Audio             Chinese         384 kbps        5.1 / 48 kHz / 384 kbps
Dolby Digital Audio             Chinese         384 kbps        2.0 / 48 kHz / 384 kbps

SUBTITLES:

Codec                           Language        Bitrate         Description    
-----                           --------        -------         -----------    
Presentation Graphics           English         47.94 kbps                      
Presentation Graphics           English         38.365 kbps                    
Presentation Graphics           French          35.88 kbps                      
Presentation Graphics           Spanish         37.727 kbps                    
Presentation Graphics           Japanese        24.679 kbps                    
Presentation Graphics           Japanese        0.131 kbps                      
Presentation Graphics           Chinese         25.372 kbps                    
Presentation Graphics           Chinese         29.291 kbps                    

FILES:

Name            Time In         Length          Size            Total Bitrate  
----            -------         ------          ----            -------------  
00055.M2TS      0:00:00.000     0:00:45.336     385,812,480     68,079 kbps    
00056.M2TS      0:00:45.336     0:00:52.844     407,316,480     61,662 kbps    
00057.M2TS      0:01:38.181     0:02:02.956     1,098,264,576   71,457 kbps    
00058.M2TS      0:03:41.137     0:00:44.461     376,209,408     67,692 kbps    
00059.M2TS      0:04:25.598     0:13:45.449     7,309,148,160   70,837 kbps    
00060.M2TS      0:18:11.048     0:00:26.860     235,579,392     70,164 kbps    
00061.M2TS      0:18:37.908     0:13:55.584     7,370,170,368   70,562 kbps    
00071.M2TS      0:32:33.493     0:00:33.116     288,067,584     69,589 kbps    
00073.M2TS      0:33:06.609     0:06:58.876     3,700,697,088   70,678 kbps    
00074.M2TS      0:40:05.486     0:00:40.290     355,424,256     70,572 kbps    
00075.M2TS      0:40:45.776     0:02:15.385     1,191,819,264   70,425 kbps    
00076.M2TS      0:43:01.161     0:00:29.154     256,727,040     70,446 kbps    
00077.M2TS      0:43:30.315     0:07:18.396     3,881,601,024   70,832 kbps    
00078.M2TS      0:50:48.712     0:00:45.420     398,776,320     70,237 kbps    
00079.M2TS      0:51:34.132     0:33:35.346     17,950,347,264  71,254 kbps    
00080.M2TS      1:25:09.479     0:00:39.330     357,212,160     72,657 kbps    
00081.M2TS      1:25:48.810     0:06:35.561     3,479,058,432   70,361 kbps

115网盘下载

[玩具总动员2][4K UHD原盘DIY 国粤语+R3简繁中字]
Toy.Story.2.1999.UHD.BluRay.2160p.HEVC.TrueHD.7.1-DIY@TTG [53.98G]

此内容查看价格为10蓝光币,VIP免费,请先
本站原盘资源均含有中文字幕,仅支持115网盘VIP用户下载!

本站提供的所有影视作品均是在网上搜集,任何涉及商业盈利目的均不得使用,否则产生的一切后果将由您自己承担!
该下载内容仅做宽带测试使用,请在下载后24小时内删除。请购买正版!

0

评论0

请先

显示验证码
没有账号? 注册  忘记密码?