海底总动员 Finding Nemo (2003)

海底总动员/海底奇兵/寻找尼莫/海底奇兵 [4K UHD原盘DIY 台配/粤语/普通话+R3繁简中字]
Finding Nemo 2003 2160p UHD Blu-ray HEVC Atmos TrueHD 7.1-DIY@TTG [57.13 GB]

◎译  名 海底总动员/寻找尼莫/海底奇兵/海底总动员3D
◎片  名 Finding Nemo/Finding Nemo 3D
◎年  代 2003
◎产  地 美国,澳大利亚
◎类  别 喜剧 / 动画 / 家庭 / 冒险
◎语  言 英语
◎上映日期 2003-05-30(美国) / 2003-07-30(中国大陆) / 2012-09-14(美国)
◎IMDb评分  8.1/10 from 880181 users
◎IMDb链接  https://www.imdb.com/title/tt0266543/
◎豆瓣评分 8.3/10 from 267,465 users
◎豆瓣链接 https://movie.douban.com/subject/1291586/
◎片  长 100 分钟
◎导  演 安德鲁·斯坦顿 Andrew Stanton / 李·昂克里奇 Lee Unkrich
◎编  剧 安德鲁·斯坦顿 Andrew Stanton / 鲍勃·彼德森 Bob Peterson / 大卫·雷诺兹 David Reynolds
◎主  演 艾伯特·布鲁克斯 Albert Brooks
       艾伦·德杰尼勒斯 Ellen DeGeneres
       亚历山大·古尔德 Alexander Gould
       威廉·达福 Willem Dafoe
       布拉德·加内特 Brad Garrett
       艾莉森·珍妮 Allison Janney
       Austin Pendleton
       斯蒂芬·鲁特 Stephen Root
       杰弗里·拉什 Geoffrey Rush
       伊丽莎白·帕金斯 Elizabeth Perkins

◎标  签 动画 | 迪斯尼 | 美国 | 亲情 | 喜剧 | 经典 | 2003 | pixar

◎简  介

  在澳洲大堡礁的深海中,小丑鱼爸爸玛林和儿子尼莫简单幸福的生活着,可是爸爸做事常常畏首畏尾,是个胆小鬼,尼莫觉得爸爸很不勇敢,甚至有点看不起自己的爸爸。小尼莫却天不怕地不怕,跟同伴们去水面玩耍的时候,竟然被渔网捞了起来,辗转被卖到一家牙医诊所。玛林对儿子的生死未卜感到十分的担忧,就算平时不能大胆行事,为了儿子也要勇敢豁出去了。可是在路上遇到了很多艰难与恐惧,令他十分胆怯。幸好他遇到了好心的多瑞,一路与他作伴。父子俩都遇到了很多热心的帮助,最终都能重逢,玛林也从此成为儿子以及大家心中的英雄。

◎获奖情况

  第76届奥斯卡金像奖  (2004)
  最佳原创剧本(提名) 安德鲁·斯坦顿
  最佳动画长片 安德鲁·斯坦顿
  最佳音效剪辑(提名) 嘉里·瑞德斯托姆 / 迈克尔·席维斯
  最佳原创配乐(提名) 托马斯·纽曼
  
  第61届金球奖  (2004)
  电影类最佳音乐/喜剧片(提名)
  
  第57届英国电影学院奖  (2004)
  电影奖最佳原创剧本(提名) 大卫·雷诺兹 / 安德鲁·斯坦顿 / 鲍勃·彼德森
  
  第31届动画安妮奖  (2004)
  最佳动画长片
  最佳导演 安德鲁·斯坦顿 / 李·昂克里奇
  最佳编剧 大卫·雷诺兹 / 安德鲁·斯坦顿 / 鲍勃·彼德森
  最佳配音 艾伦·德杰尼勒斯
  最佳配乐 托马斯·纽曼
  最佳艺术指导 拉夫·埃格尔斯顿
  最佳动画角色 道格·斯威特兰德
  最佳动画角色(提名) GiniSantos
  最佳角色设计 RickyNierva
  最佳动画效果 MartinNguyen
  最佳动画效果(提名) MartinNguyen / JustinPaulRitter / JustinPaulRitter
  
  第4届美国电影学会奖  (2003)
  年度佳片

DISC INFO:

Disc Title: FINDING_NEMO
Disc Size: 61,343,528,960 bytes
Protection: AACS2
Extras: Ultra HD, BD-Java
BDInfo: 0.7.5.5 (compatible layout created by DVDFab 11.0.4.8)

PLAYLIST REPORT:

Name: 00800.MPLS
Length: 1:40:53.964 (h:m:s.ms)
Size: 54,749,614,080 bytes
Total Bitrate: 72.35 Mbps

VIDEO:

Codec Bitrate Description
----- ------- -----------
MPEG-H HEVC Video 53319 kbps 2160p / 23.976 fps / 16:9 / Main 10 @ Level 5.1 @ High / 4:2:0 / 10 bits / 1000nits / HDR10 / BT.2020

AUDIO:

Codec Language Bitrate Description
----- -------- ------- -----------
Dolby TrueHD/Atmos Audio English 7536 kbps 7.1-Atmos / 48 kHz / 7536 kbps / 24-bit (AC3 Core: 5.1-EX / 48 kHz / 640 kbps)
Dolby Digital Plus Audio English 896 kbps 7.1 / 48 kHz / 896 kbps (AC3 Core: 5.1 / 48 kHz / 512 kbps ( Core: 5.1 / 48 kHz / 512 kbps))
Dolby Digital EX Audio English 640 kbps 5.1-EX / 48 kHz / 640 kbps
Dolby Digital Audio English 320 kbps 2.0 / 48 kHz / 320 kbps / Dolby Surround
Dolby Digital Audio English 320 kbps 2.0 / 48 kHz / 320 kbps / Dolby Surround
Dolby Digital Plus Audio French 896 kbps 7.1 / 48 kHz / 896 kbps (AC3 Core: 5.1 / 48 kHz / 512 kbps ( Core: 5.1 / 48 kHz / 512 kbps))
Dolby Digital EX Audio Spanish 640 kbps 5.1-EX / 48 kHz / 640 kbps
Dolby Digital Plus Audio Japanese 896 kbps 7.1 / 48 kHz / 896 kbps (AC3 Core: 5.1 / 48 kHz / 512 kbps ( Core: 5.1 / 48 kHz / 512 kbps))
Dolby Digital EX Audio Chinese 640 kbps 5.1-EX / 48 kHz / 640 kbps 台配
Dolby Digital EX Audio Chinese 640 kbps 5.1-EX / 48 kHz / 640 kbps 粤语
Dolby Digital EX Audio Chinese 640 kbps 5.1-EX / 48 kHz / 640 kbps 普通话

SUBTITLES:

Codec Language Bitrate Description
----- -------- ------- -----------
Presentation Graphics English 41.109 kbps
Presentation Graphics French 42.774 kbps
Presentation Graphics Spanish 38.377 kbps
Presentation Graphics Japanese 27.838 kbps
Presentation Graphics Chinese 30.132 kbps R3简体字幕
Presentation Graphics Chinese 33.605 kbps R3繁体字幕

FILES:

Name Time In Length Size Total Bitrate
---- ------- ------ ---- -------------
00055.M2TS 0:00:00.000 0:04:45.785 2,563,147,776 71,750 kbps
00057.M2TS 0:04:45.785 0:00:52.260 469,800,960 71,916 kbps
00058.M2TS 0:05:38.046 1:26:48.703 47,320,922,112 72,679 kbps
00059.M2TS 1:32:26.749 0:00:16.975 155,381,760 73,227 kbps
00060.M2TS 1:32:43.724 0:00:40.540 365,549,568 72,135 kbps
00061.M2TS 1:33:24.265 0:07:05.174 3,659,814,912 68,862 kbps
00062.M2TS 1:40:29.440 0:00:24.524 214,996,992 70,132 kbps

115网盘下载

海底总动员/海底奇兵/寻找尼莫/海底奇兵 [4K UHD原盘DIY 台配/粤语/普通话+R3繁简中字]
Finding Nemo 2003 2160p UHD Blu-ray HEVC Atmos TrueHD 7.1-DIY@TTG [57.13 GB]

此内容查看价格为10蓝光币,VIP免费,请先
本站原盘资源均含有中文字幕,仅支持115网盘VIP用户下载!

本站提供的所有影视作品均是在网上搜集,任何涉及商业盈利目的均不得使用,否则产生的一切后果将由您自己承担!
该下载内容仅做宽带测试使用,请在下载后24小时内删除。请购买正版!

0

评论0

请先

显示验证码
没有账号? 注册  忘记密码?