勇敢传说 Brave (2012)

勇敢传说/勇敢传说之幻险森林(港) [4K UHD原盘DIY 台配/粤语/普通话+R3简繁中字]
Brave 2012 2160p UHD Blu-ray HEVC Atmos TrueHD 7.1-DIY@TTG [51.02 GB]

◎译  名 勇敢传说/勇敢/勇敢传说之幻险森林(港)/勇敢的公主/熊与弓
◎片  名 Brave/Bear and the Bow
◎年  代 2012
◎产  地 美国
◎类  别 喜剧 / 动画 / 奇幻 / 冒险
◎语  言 英语
◎上映日期 2012-06-10(西雅图电影节) / 2012-06-19(中国大陆) / 2012-06-22(美国)
◎IMDb评分  7.1/10 from 343944 users
◎IMDb链接  https://www.imdb.com/title/tt1217209/
◎豆瓣评分 7.5/10 from 114,458 users
◎豆瓣链接 https://movie.douban.com/subject/3036473/
◎片  长 93分钟
◎导  演 马克∙安德鲁斯 Mark Andrews / 布兰达∙查普 Brenda Chapman / 史蒂夫·普切尔 Steve Purcell
◎编  剧 布兰达∙查普 Brenda Chapman / 艾琳·梅琪 Irene Mecchi / 马克∙安德鲁斯 Mark Andrews / 史蒂夫·普切尔 Steve Purcell
◎主  演 凯莉·麦克唐纳 Kelly Macdonald
       艾玛·汤普森 Emma Thompson
       比利·康诺利 Billy Connolly
       朱丽·沃特斯 Julie Walters
       罗彼·考特拉尼 Robbie Coltrane
       凯文·麦克基德 Kevin McKidd
       克雷格·费格森 Craig Ferguson
       莎莉·金霍恩 Sally Kinghorn
       伊丽·弗雷泽 Eilidh Fraser
       佩吉·巴克 Peigi Barker
       史蒂芬·克里 Steven Cree
       卡勒姆·奥尼尔 Callum O‘Neill
       帕特里克·杜尔 Patrick Doyle
       约翰·拉岑贝格 John Ratzenberger
       史蒂夫·波赛尔 Steve Purcell

◎标  签 动画 | 美国 | 皮克斯 | 亲情 | Disney | 2012 | 喜剧 | 成长

◎简  介

  长久以来,那些伟大的战争故事和魔幻的传说一直被人们口口相传,一代又一代,生生不息在这片延绵又神秘的苏格兰高地上。迪士尼∙皮克斯的又一诚意之作,勇敢的梅莉达抗争传统束缚,追求自由从而改变自己命运的瑰丽故事横空出世。梅莉达是佛格国王与艾莉诺皇后的长女,她是一名出色的弓箭手, 也有任性不羁,《勇敢传说》讲述的就是她的冒险故事。
  为了走出自己的生活之路,梅莉达拒绝承袭对于3个部落首领(丁瓦、麦金、麦葛)来说神圣不可侵犯的古老传统。梅莉达的鲁莽给她的王国带去了混乱和灾难,当她向森林中的女巫寻求帮助的时候,女巫却实施了灾难性的魔咒。
  接踵而来的灾难逼迫梅莉达使出浑身解术——包括自己的三胞胎弟弟们——来帮助她解除咒语,寻获勇气的真谛。
  由马克∙安德鲁斯与布兰达∙查普联合执导,凯瑟琳∙萨拉斐安监制的这部《勇敢传说》,充满了伟大冒险传奇,打造出经典的人物角色,当然还有备受全球影迷期待的皮克斯式幽默。

◎获奖情况

  第85届奥斯卡金像奖  (2013)
  最佳动画长片 布兰达∙查普曼 / 马克∙安德鲁斯
  
  第70届金球奖  (2013)
  电影类最佳动画长片
  
  第40届动画安妮奖  (2013)
  最佳动画长片(提名)
  最佳编剧(提名) 布兰达∙查普曼 / 马克∙安德鲁斯 / 艾琳·梅琪
  最佳配音(提名) 凯莉·麦克唐纳
  最佳配乐(提名) 帕特里克·道尔 / 马克∙安德鲁斯
  最佳剪辑 DavidSuther
  最佳艺术指导 StevePilcher
  最佳动画角色(提名) JaimeLandes
  最佳动画效果(提名) KeithDanielKlohn / BillWatral
  
  第78届纽约影评人协会奖  (2012)
  最佳动画片(提名)
  
  第18届美国评论家选择电影奖  (2013)
  最佳动画片(提名)
  最佳歌曲(提名)
  
  第17届金卫星奖  (2012)
  电影部门最佳动画片(提名)
  电影部门最佳原创歌曲(提名)
  
  第11届华盛顿影评人协会奖  (2012)
  最佳动画片(提名)
  
  第17届圣地亚哥影评人协会奖  (2012)
  最佳动画片(提名)
  
  第25届芝加哥影评人协会奖  (2012)
  最佳动画片(提名)
  
  第12届凤凰城影评人协会奖  (2012)
  最佳动画片(提名)
  
  第3届豆瓣电影鑫像奖  (2013)
  鑫豆单元最佳动画长片(提名)
  鑫豆单元最佳歌曲(提名)

DISC INFO:

Disc Title:     BRAVE
Disc Size:      54,779,574,272 bytes
Protection:     AACS2
Extras:         Ultra HD, BD-Java
BDInfo:         0.7.5.5 (compatible layout created by DVDFab 11.0.4.8)

PLAYLIST REPORT:

Name:                   00800.MPLS  
Length:                 1:33:35.025 (h:m:s.ms)
Size:                   50,163,191,808 bytes
Total Bitrate:          71.47 Mbps

VIDEO:

Codec                   Bitrate             Description     
-----                   -------             -----------     
MPEG-H HEVC Video       52323 kbps          2160p / 23.976 fps / 16:9 / Main 10 @ Level 5.1 @ High / 4:2:0 / 10 bits / 1000nits / HDR10 / BT.2020

AUDIO:

Codec                           Language        Bitrate         Description     
-----                           --------        -------         -----------     
Dolby TrueHD/Atmos Audio        English         8467 kbps       7.1-Atmos / 48 kHz / 8467 kbps / 24-bit (AC3 Core: 5.1 / 48 kHz / 640 kbps)
Dolby Digital Plus Audio        English         896 kbps        7.1 / 48 kHz / 896 kbps (AC3 Core: 5.1 / 48 kHz / 512 kbps ( Core: 5.1 / 48 kHz / 512 kbps))
Dolby Digital Audio             English         640 kbps        5.1 / 48 kHz / 640 kbps
Dolby Digital Audio             English         320 kbps        2.0 / 48 kHz / 320 kbps / Dolby Surround
Dolby Digital Audio             English         320 kbps        2.0 / 48 kHz / 320 kbps / Dolby Surround
Dolby Digital Plus Audio        French          896 kbps        7.1 / 48 kHz / 896 kbps (AC3 Core: 5.1 / 48 kHz / 512 kbps ( Core: 5.1 / 48 kHz / 512 kbps))
Dolby Digital Audio             Spanish         640 kbps        5.1 / 48 kHz / 640 kbps
Dolby Digital Audio             Chinese         640 kbps        5.1 / 48 kHz / 640 kbps  台配
Dolby Digital Plus Audio        Chinese         896 kbps        7.1 / 48 kHz / 896 kbps (AC3 Core: 5.1 / 48 kHz / 512 kbps ( Core: 5.1 / 48 kHz / 512 kbps))  粤语
Dolby Digital Audio             Chinese         640 kbps        5.1 / 48 kHz / 640 kbps 普通话

SUBTITLES:

Codec                           Language        Bitrate         Description     
-----                           --------        -------         -----------     
Presentation Graphics           English         35.84 kbps                     
Presentation Graphics           French          24.451 kbps                     
Presentation Graphics           Spanish         22.179 kbps                     
Presentation Graphics           Chinese         14.015 kbps   R3简体字幕                  
Presentation Graphics           Chinese         15.52 kbps     R3繁体字幕                 

FILES:

Name            Time In         Length          Size            Total Bitrate   
----            -------         ------          ----            -------------   
00055.M2TS      0:00:00.000     0:00:45.295     391,004,160     69,058 kbps     
00056.M2TS      0:00:45.295     0:00:28.403     226,560,000     63,812 kbps     
00057.M2TS      0:01:13.698     0:03:02.473     1,627,619,328   71,357 kbps     
00058.M2TS      0:04:16.172     0:00:58.016     516,931,584     71,280 kbps     
00059.M2TS      0:05:14.188     1:19:25.302     42,596,665,344  71,511 kbps     
00065.M2TS      1:24:39.491     0:02:02.997     1,118,754,816   72,765 kbps     
00066.M2TS      1:26:42.488     0:00:46.254     408,207,360     70,601 kbps     
00067.M2TS      1:27:28.743     0:05:24.157     2,858,293,248   70,540 kbps     
00068.M2TS      1:32:52.900     0:00:17.934     153,950,208     68,671 kbps     
00075.M2TS      1:33:10.835     0:00:07.716     86,464,512      89,646 kbps     
00076.M2TS      1:33:18.551     0:00:15.473     176,953,344     91,485 kbps     
00077.M2TS      1:33:34.024     0:00:01.000     1,787,904       14,288 kbps     

115网盘下载

勇敢传说/勇敢传说之幻险森林(港) [4K UHD原盘DIY 台配/粤语/普通话+R3简繁中字]
Brave 2012 2160p UHD Blu-ray HEVC Atmos TrueHD 7.1-DIY@TTG [51.02 GB]

此内容查看价格为10蓝光币,VIP免费,请先
本站原盘资源均含有中文字幕,仅支持115网盘VIP用户下载!

本站提供的所有影视作品均是在网上搜集,任何涉及商业盈利目的均不得使用,否则产生的一切后果将由您自己承担!
该下载内容仅做宽带测试使用,请在下载后24小时内删除。请购买正版!

0

评论0

请先

显示验证码
没有账号? 注册  忘记密码?