优步危机 Stuber (2019)

[优步危机][4K UHD原盘DIY R3 简繁中字]
Stuber.2019.UHD.BluRay.2160p.HEVC.TrueHD.7.1-DIY@TTG[55.7G]

◎译   名  优步危机 / 斯图伯 / 狂玩嘢时速(港) / 玩命优步(台)
◎片   名  Stuber
◎年   代  2019
◎产   地  美国
◎类   别  喜剧 / 动作
◎语   言  英语
◎上映 日期  2019-07-12(美国)
◎IMDb评分  6.1/10 from 46,458 users
◎IMDb链接  https://www.imdb.com/title/tt7734218/
◎豆瓣 评分  6.2/10 from 4704 users
◎豆瓣 链接  https://movie.douban.com/subject/27603782/
◎烂 番 茄   42%
◎Metacritic   42/100
◎片   长  93分钟
◎导   演  迈克尔·道斯 Michael Dowse
◎编   剧  特里珀·克兰西 Tripper Clancy
◎主   演  戴夫·巴蒂斯塔 Dave Bautista
        库梅尔·南贾尼 Kumail Nanjiani
        米拉·索维诺 Mira Sorvino
        娜塔丽·莫瑞丝 Natalie Morales
        伊科·乌艾斯 Iko Uwais
        贝蒂·吉尔平 Betty Gilpin
        凯伦·吉兰 Karen Gillan
        吉米·塔特罗 Jimmy Tatro
        史蒂夫·豪威 Steve Howey
        雷内‧莫兰 Rene Moran
        阿明·约瑟夫 Amin Joseph
        克里斯汀·霍恩 Christine Horn
        罗伯特·哈维 Robert Harvey
        詹妮弗·马歇尔 Jennifer Marshall
        帕特丽夏·弗兰茨 Patricia French
        布鲁诺·罗斯 Bruno Rose
        斯科特·劳伦斯 Scott Lawrence
        约书亚·米克尔 Joshua Mikel
        斯卓克 Stroker
        迈卡沙内巴林杰 Micah Shane Ballinger
        约翰·盖蒂尔 John Gettier
        艾米丽塔·T·冈萨雷斯 Emelita T. Gonzalez
        汉斯·马雷罗 Hans Marrero
        扎拉·麦克道威尔 Zara McDowell
        Edward Parker Edward Parker
        詹姆斯·威廉·巴拉德 James William Ballard
        文斯·皮萨尼 Vince Pisani

◎简  介

  南贾尼饰演一名性格温和的Uber司机,某天载的乘客是一位头发斑白的警察,他正在追捕一名残忍的杀手。司机发现自己面临艰巨考验,他必须要保持冷静,保证服务质量以获得五星好评。

DISC INFO:
Disc Title: STUBER_1000cd_HDR10+_Default_TR_BD66_UHDBD
Disc Size: 59,775,275,833 bytes
Protection: AACS2
Extras: Ultra HD, BD-Java
BDInfo: 0.7.5.6 (compatible layout created by DVDFab 11.0.5.5)
PLAYLIST REPORT:
Name: 00800.MPLS
Length: 1:33:24.056 (h:m:s.ms)
Size: 58,434,048,000 bytes
Total Bitrate: 83.42 Mbps
() Indicates included stream hidden by this playlist VIDEO: Codec Bitrate Description ----- ------- ----------- MPEG-H HEVC Video 66295 kbps 2160p / 23.976 fps / 16:9 / Main 10 @ Level 5.1 @ High / 4:2:0 / 10 bits / 1000nits / HDR10+ v1 Profile A / BT.2020 AUDIO: Codec Language Bitrate Description ----- -------- ------- ----------- / I: I. z q- [; M
Dolby TrueHD/Atmos Audio English 4577 kbps 7.1-Atmos / 48 kHz / 4577 kbps / 16-bit (AC3 Core: 5.1 / 48 kHz / 640 kbps)
Dolby Digital Audio English 448 kbps 5.1 / 48 kHz / 448 kbps
Dolby Digital Audio Spanish 448 kbps 5.1 / 48 kHz / 448 kbps
DTS Audio French 768 kbps 5.1 / 48 kHz / 768 kbps / 24-bit
DTS Audio Spanish 768 kbps 5.1 / 48 kHz / 768 kbps / 24-bit
DTS Audio German 768 kbps 5.1 / 48 kHz / 768 kbps / 24-bit
DTS Audio Italian 768 kbps 5.1 / 48 kHz / 768 kbps / 24-bit
Dolby Digital Audio Czech 448 kbps 5.1 / 48 kHz / 448 kbps
Dolby Digital Audio Hungarian 448 kbps 5.1 / 48 kHz / 448 kbps
Dolby Digital Audio English 224 kbps 2.0 / 48 kHz / 224 kbps
DTS Audio Japanese 768 kbps 5.1 / 48 kHz / 768 kbps / 24-bit
SUBTITLES:
Codec Language Bitrate Description
----- -------- ------- -----------
Presentation Graphics English 58.233 kbps
Presentation Graphics Spanish 47.186 kbps
Presentation Graphics French 43.1 kbps
Presentation Graphics Spanish 43.496 kbps
Presentation Graphics Danish 41.535 kbps
Presentation Graphics Dutch 38.539 kbps
Presentation Graphics Finnish 41.619 kbps
Presentation Graphics German 45.906 kbps
Presentation Graphics Italian 41.196 kbps
Presentation Graphics Norwegian 43.621 kbps
Presentation Graphics Swedish 42.658 kbps
Presentation Graphics Czech 43.337 kbps
Presentation Graphics Hungarian 43.859 kbps
Presentation Graphics Korean 28.733 kbps
Presentation Graphics English 85.998 kbps
Presentation Graphics Spanish 70.835 kbps
Presentation Graphics French 71.257 kbps
Presentation Graphics Spanish 69.362 kbps
Presentation Graphics Danish 68.39 kbps
Presentation Graphics Dutch 63.562 kbps
Presentation Graphics Finnish 67.423 kbps
Presentation Graphics German 79.103 kbps
Presentation Graphics Italian 71.235 kbps
Presentation Graphics Norwegian 68.747 kbps
Presentation Graphics Swedish 64.213 kbps
Presentation Graphics Korean 44.928 kbps
Presentation Graphics Chinese 33.714 kbps
Presentation Graphics Chinese 34.562 kbps

Presentation Graphics Japanese 0.316 kbps

Presentation Graphics Japanese 27.45 kbps

Presentation Graphics Japanese 32.03 kbps
FILES:
Name Time In Length Size Total Bitrate
---- ------- ------ ---- -------------
00685.M2TS 0:00:00.000 0:29:02.699 18,658,947,072 85,655 kbps
00687.M2TS 0:29:02.699 0:00:28.236 272,437,248 77,187 kbps
00689.M2TS 0:29:30.935 1:03:53.120 39,502,663,680 82,444 kbps

115网盘下载

[优步危机][4K UHD原盘DIY R3 简繁中字]
Stuber.2019.UHD.BluRay.2160p.HEVC.TrueHD.7.1-DIY@TTG[55.7G]

此内容查看价格为10蓝光币,VIP免费,请先
本站原盘资源均含有中文字幕,仅限115网盘VIP用户下载!

本站提供的所有影视作品均是在网上搜集,任何涉及商业盈利目的均不得使用,否则产生的一切后果将由您自己承担!
该下载内容仅做宽带测试使用,请在下载后24小时内删除。请购买正版!

0

评论0

请先

显示验证码
没有账号? 注册  忘记密码?