蜘蛛侠3 Spider-Man 3 (2007)

蜘蛛侠3 [4K UHD原盘 DIY简繁双语字幕] [63.95 GB]
Spider-Man 3 2007 2160p UHD Blu-ray HEVC Atmos-wezjh@OurBits

◎译  名 蜘蛛侠3 / 蜘蛛人3
◎片  名 Spider-Man 3
◎年  代 2007
◎产  地 美国
◎类  别 动作 / 科幻 / 冒险
◎语  言 英语
◎上映日期 2007-05-01(中国大陆) / 2007-05-04(美国)
◎豆瓣评分 7.4/10 from 184460 users
◎豆瓣链接 https://movie.douban.com/subject/1418189/
◎片  长 139分钟
◎导  演 Sam Raimi
◎编  剧 山姆·雷米 Sam Raimi / 伊万·莱米 Ivan Raimi / 阿尔文·萨金特 Alvin Sargent / 斯坦·李 Stan Lee / 史蒂夫·迪特寇 Steve Ditko
◎主  演 托比·马奎尔 Tobey Maguire
      克斯汀·邓斯特 Kirsten Dunst
      詹姆斯·弗兰科 James Franco
      托马斯·哈登·丘奇 Thomas Haden Church
      托弗·戈瑞斯 Topher Grace
      布莱丝·达拉斯·霍华德 Bryce Dallas Howard
      罗斯玛丽·哈里斯 Rosemary Harris
      J·K·西蒙斯 J.K. Simmons
      詹姆斯·克伦威尔 James Cromwell
      泰莉莎·拉塞尔 Theresa Russell
      迪伦·贝克 Dylan Baker
      比尔·努恩 Bill Nunn
      布鲁斯·坎贝尔 Bruce Campbell
      伊丽莎白·班克斯 Elizabeth Banks
      泰德·雷米 Ted Raimi

◎标  签 科幻 | 美国 | 蜘蛛侠 | 动作 | 漫画改编 | 美国电影 | 蜘蛛侠3 | 2007

◎简  介

  蜘蛛侠(托比•马奎尔 Tobey Maguire 饰)在经历了重重考验之后,成为了人人敬仰的正义英雄,抱得美人归。但是,光环下蜘蛛侠,也有自己的心病:他在第一集时放走了小偷导致最亲爱的叔叔被小偷杀死,帕克一直耿耿于怀。
  生活顺意的帕克开始变得目中无人,当他再次抓到那个小偷时,残忍地看着他从楼上摔下致死,过后才发现自己惩罚错了人,真凶是“沙人”。当帕克将“沙人”残忍杀死后,帕克心内的阴暗面渐渐在帕克的身体内占据了上风,蜘蛛侠最终演变成邪恶的“毒蜘蛛”!糟糕的是,帕克没有察觉到自身的变化,帕克最终如何摆脱自身的邪恶?

◎获奖情况

  第61届英国电影学院奖(2008)
  电影奖 最佳特殊视觉效果(提名) Spencer Cook / 约翰·弗雷泽 / 斯科特·斯多克迪克 / Peter Nofz

  第35届动画安妮奖(2008)
  最佳动画效果(提名) Ryan Laney

  第17届MTV电影奖(2008)
  MTV电影奖 最佳打斗(提名) 詹姆斯·弗兰科 / 托比·马奎尔
  MTV电影奖 最佳反派(提名) 托弗·戈瑞斯

DISC INFO:

Disc Title:     Spider-Man 3 2007 2160p UHD Blu-ray HEVC Atmos-wezjh@OurBits
Disc Size:      68,654,535,481 bytes
Protection:     AACS2
Extras:         Ultra HD, BD-Java
BDInfo:         0.7.5.8 (compatible layout created by DVDFab 11.0.8.1)

PLAYLIST REPORT:

Name:                   00245.MPLS  
Length:                 2:19:10.341 (h:m:s.ms)
Size:                   66,809,376,768 bytes
Total Bitrate:          64.01 Mbps

Angle 1 Length:         0:05:11.936 (h:m:s.ms) / 2:19:10.341 (h:m:s.ms)
Angle 1 Size:           1,412,984,832 bytes / 66,745,208,832 bytes
Angle 1 Total Bitrate:  36.24 Mbps / 63.94 Mbps

All Angles Length:      2:24:22.278 (h:m:s.ms)
All Angles Size:        68,222,361,600 bytes
All Angles Bitrate:     63.01 Mbps

VIDEO:

Codec                   Bitrate             Desc‍ription     
-----                   -------             -----------     
MPEG-H HEVC Video       54478 kbps          2160p / 23.976 fps / 16:9 / Main 10 @ Level 5.1 @ High / 4:2:0 / 10 bits / 4000nits / HDR10 / BT.2020
MPEG-H HEVC Video (1)   1035 (27724) kbps   2160p / 23.976 fps / 16:9 / Main 10 @ Level 5.1 @ High / 4:2:0 / 10 bits / 4000nits / HDR10 / BT.2020

AUDIO:

Codec                           Language        Bitrate         Desc‍ription     
-----                           --------        -------         -----------     
Dolby TrueHD/Atmos Audio        English         5492 kbps       7.1.4 / 48 kHz / 4852 kbps / 24-bit (AC3 Core: 5.1.29 / 48 kHz / 640 kbps)

SUBTITLES:

Codec                           Language        Bitrate         Desc‍ription     
-----                           --------        -------         -----------     
Presentation Graphics           English         26.411 kbps                     
Presentation Graphics           Chinese         14.869 kbps              简体画面       
Presentation Graphics           Chinese         15.6 kbps                繁体画面     
Presentation Graphics           Chinese         25.383 kbps              简英黑边       
Presentation Graphics           Chinese         25.973 kbps              繁英黑边       

FILES:

Name            Time In         Length          Size            Total Bitrate   
----            -------         ------          ----            -------------   
00339.M2TS      0:00:00.000     0:00:02.001     1,136,640       4,542 kbps      
00340.M2TS (1)  0:00:00.000     0:00:02.001     1,136,640       4,542 kbps      
00001.M2TS      0:00:02.001     2:13:58.405     65,332,224,000  65,020 kbps     
00336.M2TS      2:14:00.407     0:05:09.934     1,476,016,128   38,098 kbps     
00338.M2TS (1)  2:14:00.407     0:05:09.934     1,411,848,192   36,442 kbps     
            

115网盘下载

蜘蛛侠3 [4K UHD原盘 DIY简繁双语字幕] [63.95 GB]
Spider-Man 3 2007 2160p UHD Blu-ray HEVC Atmos-wezjh@OurBits

此内容查看价格为10蓝光币,VIP免费,请先
本站原盘资源均含有中文字幕,仅限115网盘VIP用户下载!

本站提供的所有影视作品均是在网上搜集,任何涉及商业盈利目的均不得使用,否则产生的一切后果将由您自己承担!
该下载内容仅做宽带测试使用,请在下载后24小时内删除。请购买正版!

0

评论0

请先

显示验证码
没有账号? 注册  忘记密码?