绿色星球 The Green Planet (2022)

[BBC绿色星球]「4K UHD原盘DIY 简繁特效中字」4K纪录片拍摄技术天花板 强烈推荐
The Green Planet 2022 GBR UHD Blu-ray 2160p HEVC Atmos TrueHD 7.1-DIY@TTG[121.41GB]

★★★★★★ 影 片 信 息 ★★★★★★

◎译  名 绿色星球
◎片  名 The Green Planet
◎年  代 2022
◎产  地 英国
◎类  别 纪录片
◎语  言 英语
◎上映日期 2022-01-09(英国) / 2022-01-10(中国大陆)
◎IMDb评分  9.3/10 from 773 users
◎IMDb链接  https://www.imdb.com/title/tt16986646/
◎豆瓣评分 9.7/10 from 7037 users
◎豆瓣链接 https://movie.douban.com/subject/33387356/
◎集  数 5
◎片  长 50分钟左右/集
◎主  演 大卫·爱登堡 David Attenborough
◎简  介
  节目是首个通过沉浸式的呈现方式聚焦植物的纪录片,为观众们展示了这个低调秘密、不为人知的植物世界。它们既能与动物形成互惠互利的关系,也可以像我们星球上的任何生物一样具有攻击性、竞争性和戏剧性。为争夺光照、空间、营养和为家族开枝散叶的机会,它们会与竞争对手、动物和元素进行致命的斗争。
  本片展示了跨越20多年的新发现,同时揭示了相互紧密联系的植物世界。专业摄像机使我们拥有超越人眼的能力,比以往任何时候都观察的更贴近与深入。
  全新的故事,前所未见的动植物行为,令人惊讶的英雄,带你从植物的角度看地球。

★★★★★★  编 码 参 数 ★★★★★★

DISC INFO:
Disc Title:     The Green Planet - Disc 1
Disc Label:     The Green Planet - Disc 1
Disc Size:      74,753,122,537 bytes
Protection:     AACS2
Extras:         Ultra HD, BD-Java
BDInfo:         0.7.5.8
PLAYLIST REPORT:
Name:                   00033.MPLS
Length:                 2:33:46.342 (h:m:s.ms)
Size:                   74,251,247,616 bytes
Total Bitrate:          64.38 Mbps
VIDEO:
Codec                   Bitrate             Description     
-----                   -------             -----------     
MPEG-H HEVC Video       52764 kbps          2160p / 23.976 fps / 16:9 / Main 10 @ Level 5.1 @ High / 10 bits / HDR10 / BT.2020
AUDIO:
Codec                           Language        Bitrate         Description     
-----                           --------        -------         -----------     
DTS-HD Master Audio             English         2102 kbps       5.1 / 48 kHz /  2102 kbps / 16-bit (DTS Core: 5.1 / 48 kHz /  1509 kbps / 16-bit)
Dolby TrueHD/Atmos Audio        English         5372 kbps       7.1 / 48 kHz /  4732 kbps / 24-bit (AC3 Embedded: 5.1-EX / 48 kHz /   640 kbps / DN -31dB)
SUBTITLES:
Codec                           Language        Bitrate         Description     
-----                           --------        -------         -----------     
Presentation Graphics           Chinese         21.792 kbps                     
Presentation Graphics           Chinese         22.294 kbps                     
Presentation Graphics           English         31.360 kbps                     
FILES:
Name            Time In         Length          Size            Total Bitrate   
----            -------         ------          ----            -------------   
00018.M2TS      0:00:00.000     0:50:22.561     24,680,792,064  65,324         
00019.M2TS      0:50:22.561     0:52:06.832     24,900,556,800  63,708         
00020.M2TS      1:42:29.393     0:51:16.948     24,669,898,752  64,141            

115网盘下载

[BBC绿色星球]「4K UHD原盘DIY 简繁特效中字」4K纪录片拍摄技术天花板 强烈推荐
The Green Planet 2022 GBR UHD Blu-ray 2160p HEVC Atmos TrueHD 7.1-DIY@TTG[121.41GB]

此内容查看价格为10蓝光币,VIP免费,请先
本站原盘资源均含有中文字幕,仅支持115网盘VIP用户下载!

本站提供的所有影视作品均是在网上搜集,任何涉及商业盈利目的均不得使用,否则产生的一切后果将由您自己承担!
该下载内容仅做宽带测试使用,请在下载后24小时内删除。请购买正版!

0

评论0

请先

显示验证码
没有账号? 注册  忘记密码?