猎神:冬日之战 The Huntsman: Winter's War (2016)

[猎神·冬日之战][4K UHD原盘DIY 剧场/加长版 繁体TW+繁體HK字幕]
The.Huntsman.Winters.War.2016.2N1.UHD.BluRay.2160p.HEVC.DTS-X.7.1-DIY@TTG 【58.67G】

◎译  名 猎神:冬日之战/獵神:魔雪叛變(香港)/狩猎者:凛冬之战(台)/猎人:冬之战/猎人:冬日之战/白雪公主与猎人2
◎片  名 The Huntsman: Winter‘s War
◎年  代 2016
◎国  家 美国
◎类  别 剧情/动作/奇幻/冒险
◎语  言 英语
◎上映日期 2016-04-22(中国大陆/美国)
◎IMDb评分  6.1/10 from 68,860 users
◎IMDb链接  http://www.imdb.com/title/tt2381991/
◎豆瓣评分 5.4/10 from 21,078 users
◎豆瓣链接 https://movie.douban.com/subject/10791575/
◎片  长 114分钟
◎导  演 塞德里克·萨科 Cedric Nicolas-Troyan
◎主  演 克里斯·海姆斯沃斯 Chris Hemsworth
      查理兹·塞隆 Charlize Theron
      艾米莉·布朗特 Emily Blunt
      杰西卡·查斯坦 Jessica Chastain
      尼克·弗罗斯特 Nick Frost
      山姆·克拉弗林 Sam Claflin
      罗伯·布莱顿 Rob Brydon
      科林·摩根 Colin Morgan
      索菲·库克森 Sophie Cookson
      谢里丹·史密斯 Sheridan Smith
      亚历山德拉·罗奇 Alexandra Roach

◎简  介

  故事发生在白雪公主的故事之前和之后的7年,冰雪女王弗雷娅(艾米莉·布朗特 Emily Blunt 饰)是邪恶女王拉文纳(查理兹·塞隆 Charlize Theron 饰)的妹妹。拉文纳通过魔镜得知妹妹的女儿将会成为世界上最美的女人,弗雷娅在一次“意外”中失去了孩子。丧子之痛激发了弗雷娅巨大的魔力,从一个善良温柔的女人变成了冷酷无情的冰雪女王,不仅创建了千里冰封的冰雪王国,更是在王国内制定了“不准相爱”的规则。猎神埃里克(克里斯·海姆斯沃斯 Chris Hemsworth 饰)与女勇士萨拉(杰西卡·查斯坦 Jessica Chastain 饰)的爱情之路正是由此开始,作为弗雷娅培养的部下,二人经历艰难后将合力对抗两大女王,这不仅是一场为爱而展开的斗争,更是一场推翻女王统治的为争取自由而引发的正邪大战。

DISC INFO:

Disc Title:     HUNTSMAN_WINTERS_WAR_UHD
Disc Size:      62,997,967,755 bytes
Protection:     AACS2
BD-Java:        Yes
Extras:         Ultra HD
BDInfo:         0.5.8.6 (compatible layout created by DVDFab 10.0.5.1)

PLAYLIST REPORT:

Name:                   00016.MPLS (加长版)
Length:                 2:00:10.244 (h:m:s.ms)
Size:                   56,025,477,120 bytes
Total Bitrate:          62.16 Mbps

(*) Indicates included stream hidden by this playlist.

VIDEO:

Codec                   Bitrate             Description    
-----                   -------             -----------    
MPEG-H HEVC Video       52781 kbps          2160p / 23.976 fps / 16:9 / Main 10 Profile 5.1 High / 4:2:0 / 10 bits / HDR / BT.2020 /

AUDIO:

Codec                           Language        Bitrate         Description    
-----                           --------        -------         -----------    
DTS:X/DTS-HD Master Audio       English         3860 kbps       7.1-X / 48 kHz / 3860 kbps / 24-bit (DTS Core: 5.1 / 48 kHz / 1509 kbps / 24-bit)
DTS Audio                       English         384 kbps        2.0 / 48 kHz / 384 kbps / 24-bit
DTS Audio                       Spanish         768 kbps        5.1 / 48 kHz / 768 kbps / 24-bit
DTS Audio                       French          768 kbps        5.1 / 48 kHz / 768 kbps / 24-bit
Dolby Digital Audio             English         192 kbps        2.0 / 48 kHz / 192 kbps / Dolby Surround
* Dolby Digital Audio           English         192 kbps        2.0 / 48 kHz / 192 kbps / Dolby Surround

SUBTITLES:

Codec                           Language        Bitrate         Description    
-----                           --------        -------         -----------    
Presentation Graphics           English         25.237 kbps                    
Presentation Graphics           Chinese         13.996 kbps  繁体(TW)                  
Presentation Graphics           Chinese         12.423 kbps  繁體(HK)                  
Presentation Graphics           Spanish         20.849 kbps                    
Presentation Graphics           French          21.15 kbps                      

FILES:

Name            Time In         Length          Size            Total Bitrate  
----            -------         ------          ----            -------------  
00000.M2TS      0:00:00.000     0:26:32.048     12,360,210,432  62,109 kbps    
00002.M2TS      0:26:32.048     0:10:21.037     4,837,951,488   62,320 kbps    
00003.M2TS      0:36:53.085     0:04:02.575     1,880,752,128   62,026 kbps    
00005.M2TS      0:40:55.661     0:02:26.938     1,130,809,344   61,566 kbps    
00006.M2TS      0:43:22.599     0:09:06.379     4,266,264,576   62,465 kbps    
00008.M2TS      0:52:28.979     0:02:37.365     1,207,824,384   61,402 kbps    
00009.M2TS      0:55:06.344     0:36:54.378     17,258,250,240  62,349 kbps    
00011.M2TS      1:32:00.723     0:03:18.615     1,547,667,456   62,338 kbps    
00012.M2TS      1:35:19.338     0:24:01.356     11,263,125,504  62,514 kbps    
00014.M2TS      1:59:20.695     0:00:35.160     239,259,648     54,438 kbps    
00015.M2TS      1:59:55.855     0:00:14.389     33,361,920      18,548 kbps    

115网盘下载

[猎神·冬日之战][4K UHD原盘DIY 剧场/加长版 繁体TW+繁體HK字幕]
The.Huntsman.Winters.War.2016.2N1.UHD.BluRay.2160p.HEVC.DTS-X.7.1-DIY@TTG 【58.67G】

此内容查看价格为10蓝光币,VIP免费,请先
本站原盘资源均含有中文字幕,仅限115网盘VIP用户下载!

本站提供的所有影视作品均是在网上搜集,任何涉及商业盈利目的均不得使用,否则产生的一切后果将由您自己承担!
该下载内容仅做宽带测试使用,请在下载后24小时内删除。请购买正版!

0

评论0

请先

显示验证码
没有账号? 注册  忘记密码?