蓝精灵:寻找神秘村 Smurfs: The Lost Village (2017)

蓝精灵:寻找神秘村 [4K UHD原盘DIY 国台粤/简繁粤双语字幕/简繁导评字幕/菜改]
Smurfs The Lost Villag 2017 2160p EUR UHD Blu-ray HEVC Atmos 7 1-nn@CHDBits[44.56GB]

◎译  名 蓝精灵:寻找神秘村/Get Smurfy/The Smurfs 3/蓝精灵3/蓝精灵3:失落的村庄/蓝色小精灵:失落的蓝蓝村(台)/超级蓝精灵:魔法重启
◎片  名 Smurfs: The Lost Village
◎年  代 2017
◎产  地 美国
◎类  别 喜剧 / 动画 / 奇幻 / 冒险
◎语  言 英语
◎上映日期 2017-03-25(格鲁吉亚) / 2017-04-07(美国) / 2017-04-21(中国大陆)
◎IMDb评分  6/10 from 17834 users
◎IMDb链接  https://www.imdb.com/title/tt2398241/
◎豆瓣评分 6.3/10 from 15009 users
◎豆瓣链接 https://movie.douban.com/subject/19899718/
◎片  长 90分钟
◎导  演 凯利·阿斯博瑞 Kelly Asbury
◎编  剧 帕米拉·里本 Pamela Ribon / 斯泰西·哈曼 Stacey Harman / 佩约 Peyo
◎主  演 黛米·洛瓦托 Demi Lovato
       雷恩·威尔森 Rainn Wilson
       乔·曼根尼罗 Joe Manganiello
       杰克·麦克布瑞尔 Jack McBrayer
       丹尼·朴迪 Danny Pudi
       曼迪·帕廷金 Mandy Patinkin
       迪·布拉雷·贝克尔 Dee Bradley Baker
       弗兰克·维尔克 Frank Welker
       米歇尔·罗德里格兹 Michelle Rodriguez
       艾丽·坎伯尔 Ellie Kemper
       朱莉娅·罗伯茨 Julia Roberts
       阿芮尔·温特 Ariel Winter
       梅根·崔娜 Meghan Trainor
       布雷特·马内尔 Bret Marnell
       凯利·阿斯博瑞 Kelly Asbury
       杰克·约翰逊 Jake M. Johnson
       加布里埃尔·伊格莱西亚斯 Gabriel Iglesias
       泰塔斯·伯吉斯 Tituss Burgess
       杰夫·邓纳姆 Jeff Dunham
       戈登·拉姆齐 Gordon Ramsay

◎标  签 动画 | 童话 | 美国 | 2017 | 奇幻 | 冒险 | 喜剧 | 经典

◎简  介

  一次偶然中,蓝妹妹(黛米·洛瓦托 Demi Lovato 配音)发现了一张遗落的地图,指引向一座神秘的村庄。为了求证村庄存在的真实性,蓝妹妹和好友聪聪(丹尼·普迪 Danny Pudi 配音)、健健(乔·曼根尼罗 Joe Manganiello 配音)、笨笨(杰克·麦克布瑞尔 Jack McBrayer 配音)一起踏上了旅途。
  
  一路上,初出茅庐的四人组遭遇了无数的危险,但总能凭借他们的智慧和运气化险为夷,四人的友情亦遭到了重重考验。邪恶的格格巫(雷恩·威尔森 Rainn Wilson 配音)也知晓了村庄的存在,为了第一个到达村庄,格格巫开始千方百计的阻挠起蓝妹妹一行的前途。

◎获奖情况

  第45届动画安妮奖  (2018)
  最佳角色设计(提名)

DISC INFO:

Disc Title:     Smurfs.The.Lost.Villag. 2017.2160p.EUR.UHD.Blu-ray.HEVC.Atmos.7.1-nn@CHDBits
Disc Size:      47,849,761,920 bytes
Protection:     AACS2
Extras:         Ultra HD, BD-Java
BDInfo:         0.7.5.3 (compatible layout created by DVDFab 11.0.4.5)

PLAYLIST REPORT:

Name:                   00510.MPLS  
Length:                 1:29:46.380 (h:m:s.ms)
Size:                   42,876,481,536 bytes
Total Bitrate:          63.68 Mbps

Angle 1 Length:         0:09:40.788 (h:m:s.ms) / 1:29:46.380 (h:m:s.ms)
Angle 1 Size:           4,707,115,008 bytes / 42,896,891,904 bytes
Angle 1 Total Bitrate:  64.84 Mbps / 63.71 Mbps

All Angles Length:      1:39:27.169 (h:m:s.ms)
All Angles Size:        47,583,596,544 bytes
All Angles Bitrate:     63.79 Mbps

VIDEO:

Codec                   Bitrate             Description    
-----                   -------             -----------    
MPEG-H HEVC Video       49747 kbps          2160p / 23.976 fps / 16:9 / Main 10 @ Level 5.1 @ High / 4:2:0 / 10 bits / HDR10 / BT.2020 /
MPEG-H HEVC Video (1)   5533 (51318) kbps   2160p / 23.976 fps / 16:9 / Main 10 @ Level 5.1 @ High / 4:2:0 / 10 bits / HDR10 / BT.2020 /

AUDIO:

Codec                           Language        Bitrate         Description    
-----                           --------        -------         -----------    
Dolby TrueHD/Atmos Audio        English         6309 kbps       7.1-Atmos / 48 kHz / 6309 kbps / 24-bit (AC3 Core: 5.1 / 48 kHz / 640 kbps)
Dolby Digital Audio             English         640 kbps        5.1 / 48 kHz / 640 kbps
Dolby Digital Audio             Chinese         640 kbps        5.1 / 48 kHz / 640 kbps    粤语
Dolby Digital Audio             Chinese         640 kbps        5.1 / 48 kHz / 640 kbps    台配
Dolby Digital Audio             Chinese         640 kbps        5.1 / 48 kHz / 640 kbps    国配
Dolby Digital Audio             English         192 kbps        2.0 / 48 kHz / 192 kbps / Dolby Surround

SUBTITLES:

Codec                           Language        Bitrate         Description    
-----                           --------        -------         -----------    
Presentation Graphics           English         40.227 kbps                    
Presentation Graphics           English         60.724 kbps                    
Presentation Graphics           Chinese         28.492 kbps                     繁体中文-粤语
Presentation Graphics           Chinese         32.6 kbps                         繁体中文-台配
Presentation Graphics           Chinese         32.973 kbps                     简体中文-国配
Presentation Graphics           Chinese         51.397 kbps                     粤英双语
Presentation Graphics           Chinese         54.535 kbps                     繁英双语
Presentation Graphics           Chinese         54.255 kbps                     简英双语
Presentation Graphics           English         241.986 kbps                    
Presentation Graphics           Chinese         177.126 kbps                    导评繁体中文
Presentation Graphics           Chinese         49.341 kbps                      导评简体中文

FILES:

Name            Time In         Length          Size            Total Bitrate  
----            -------         ------          ----            -------------  
00336.M2TS      0:00:00.000     0:56:08.156     26,553,329,664  63,069 kbps    
00337.M2TS      0:56:08.156     0:01:32.050     755,453,952     65,655 kbps    
00342.M2TS (1)  0:56:08.156     0:01:32.050     755,490,816     65,658 kbps    
00346.M2TS      0:57:40.206     0:23:57.436     11,636,447,232  64,762 kbps    
00340.M2TS      1:21:37.642     0:08:08.738     3,931,250,688   64,349 kbps    
00343.M2TS (1)  1:21:37.642     0:08:08.738     3,951,624,192   64,682 kbps    

115网盘下载

蓝精灵:寻找神秘村 [4K UHD原盘DIY 国台粤/简繁粤双语字幕/简繁导评字幕/菜改]
Smurfs The Lost Villag 2017 2160p EUR UHD Blu-ray HEVC Atmos 7 1-nn@CHDBits[44.56GB]

此内容查看价格为10蓝光币,VIP免费,请先
本站原盘资源均含有中文字幕,仅限115网盘VIP用户下载!

本站提供的所有影视作品均是在网上搜集,任何涉及商业盈利目的均不得使用,否则产生的一切后果将由您自己承担!
该下载内容仅做宽带测试使用,请在下载后24小时内删除。请购买正版!

0

评论0

请先

显示验证码
没有账号? 注册  忘记密码?