独立日 Independence Day (1996)

独立日 [4K UHD二合一原盘DIY/次世代东影上译国配/简繁双语中字/菜改]
Independence Day 1996 2in1 2160p UHD Blu-ray HEVC DTS-HD MA 7 1-fda80@CHDBits[63.98GB]

◎译   名  独立日 / ID4星际终结者(台) / 地球捍卫战 / 天煞-地球反击战(港)
◎片   名  Independence Day
◎年   代  1996
◎产   地  美国
◎类   别  动作 / 科幻 / 冒险 / 灾难
◎语   言  英语
◎上映 日期  1996-07-02(加拿大) / 1996-07-03(美国)
◎IMDb评分  7.0/10 from 561,437 users
◎IMDb链接  https://www.imdb.com/title/tt0116629/
◎豆瓣 评分  8.1/10 from 265316 users
◎豆瓣 链接  https://movie.douban.com/subject/1293013/
◎烂 番 茄  67%
◎Metacritic  59/100
◎片   长  145分钟
◎导   演  罗兰·艾默里奇 Roland Emmerich
◎编   剧  罗兰·艾默里奇 Roland Emmerich / 迪安·德夫林 Dean Devlin
◎主   演  威尔·史密斯 Will Smith
        杰夫·高布伦 Jeff Goldblum
        比尔·普尔曼 Bill Pullman
        玛丽·麦克唐纳 Mary McDonnell
        贾德·赫希 Judd Hirsch
        罗伯特·劳吉亚 Robert Loggia
        兰迪·奎德 Randy Quaid
        玛格丽特·柯林 Margaret Colin
        薇薇卡·福克斯 Vivica A. Fox
        詹姆斯·瑞布霍恩 James Rebhorn
        哈维·费斯特恩 Harvey Fierstein
        亚当·鲍德温 Adam Baldwin
        布伦特·斯皮内 Brent Spiner
        詹姆斯·杜瓦尔 James Duval
        莉萨·雅克布 Lisa Jakub
        杰赛普·安德鲁斯 Giuseppe Andrews
        罗斯·巴格利 Ross Bagley
        比尔·斯米托洛维奇 Bill Smitrovich
        梅·惠特曼 Mae Whitman
        小哈里·康尼克 Harry Connick Jr.
        绮尔斯腾·瓦伦 Kiersten Warren
        约翰·斯托里 John Storey
        弗兰克·诺瓦克 Frank Novak
        德文·古梅尔萨尔 Devon Gummersall
        吉姆·皮多克 Jim Piddock
        罗伯特·派恩 Robert Pine
        皮特·J.卢卡斯 Peter J. Lucas
        小理察·斯贝特 Richard Speight Jr.

◎获奖情况  

  第85届奥斯卡金像奖(2013)
  最佳视觉效果(提名) 理查德·斯坦默斯 / 马丁·希尔 / 查里·亨利 / 特雷弗·伍德

  第18届美国评论家选择电影奖(2013)
  最佳科幻/恐怖片(提名)

  第17届金卫星奖(2012)
  电影部门 最佳视觉效果(提名) 马丁·希尔 / 理查德·斯坦默斯 / 查里·亨利
  电影部门 最佳音效(提名) 西蒙·海斯 / 道格·亨普希尔 / 维克多·雷·恩尼斯 / 罗恩·巴特利特 / 马克·P·施特金格尔

  第12届凤凰城影评人协会奖(2012)
  最佳视觉效果(提名)

  第14届美国青少年选择奖(2012)
  最佳突破表演电影新星(提名) 劳米·拉佩斯
  最佳暑期动作冒险电影(提名)

  第3届豆瓣电影鑫像奖(2013)
  鑫豆单元 最佳影片(外语)(提名)
  鑫豆单元 最佳视觉效果(提名)

DISC INFO:
Disc Title:     Independence Day 1996 2in1 2160p UHD Blu-ray HEVC DTS-HD MA
Disc Size:      68,695,575,933 bytes
Protection:     AACS2
Extras:         Ultra HD, BD-Java, IMAX Enhanced
BDInfo:         0.7.5.9 (compatible layout created by DVDFab 12.0.0.4)
PLAYLIST REPORT:
Name:                   00800.MPLS  
Length:                 2:24:48.679 (h:m:s.ms)
Size:                   61,669,718,016 bytes
Total Bitrate:          56.78 Mbps
(*) Indicates included stream hidden by this playlist.
VIDEO:
Codec                   Bitrate             Description     
-----                   -------             -----------     
MPEG-H HEVC Video       33367 kbps          2160p / 23.976 fps / 16:9 / Main 10 @ Level 5.1 @ High / 4:2:0 / 10 bits / 1000nits / HDR10 / BT.2020
AUDIO:
Codec                           Language        Bitrate         Description     
-----                           --------        -------         -----------     
IMAX DTS:X Master Audio         English         6323 kbps       7.1-IMAX / 48 kHz / 6323 kbps / 24-bit (DTS Core: 5.1 / 48 kHz / 1509 kbps / 24-bit)
DTS-HD Master Audio             Chinese         5663 kbps       7.1 / 48 kHz / 5663 kbps / 24-bit (DTS Core: 5.1 / 48 kHz / 1509 kbps / 24-bit)东影上译国配
Dolby Digital Audio             Spanish         448 kbps        5.1 / 48 kHz / 448 kbps
DTS Audio                       French          768 kbps        5.1 / 48 kHz / 768 kbps / 24-bit
DTS Audio                       German          768 kbps        5.1 / 48 kHz / 768 kbps / 24-bit
DTS Audio                       Italian         768 kbps        5.1 / 48 kHz / 768 kbps / 24-bit
Dolby Digital Audio             English         192 kbps        1.0 / 48 kHz / 192 kbps
Dolby Digital Audio             English         224 kbps        2.0 / 48 kHz / 224 kbps / Dolby Surround
* DTS Audio                     Japanese        768 kbps        5.1 / 48 kHz / 768 kbps / 24-bit
* Dolby Digital Audio           English         224 kbps        2.0 / 48 kHz / 224 kbps
* Dolby Digital Audio           English         192 kbps        1.0 / 48 kHz / 192 kbps
SUBTITLES:
Codec                           Language        Bitrate         Description     
-----                           --------        -------         -----------     
Presentation Graphics           English         31.966 kbps                     
Presentation Graphics           Chinese         19.805 kbps   繁体香港                  
Presentation Graphics           Chinese         27.98 kbps     简体中文  画框内            
Presentation Graphics           Chinese         18.996 kbps   繁体台式               
Presentation Graphics           Chinese         35.937 kbps   简英双语               
Presentation Graphics           Chinese         36.264 kbps   繁英双语               
Presentation Graphics           Spanish         69.849 kbps                     
Presentation Graphics           French          29.566 kbps                     
Presentation Graphics           Danish          60.398 kbps                     
Presentation Graphics           Dutch           63.728 kbps                     
Presentation Graphics           Finnish         34.092 kbps                     
Presentation Graphics           German          65.174 kbps                     
Presentation Graphics           Italian         29.097 kbps                     
Presentation Graphics           Norwegian       59.035 kbps                     
Presentation Graphics           Swedish         61.418 kbps                     
Presentation Graphics           English         154.218 kbps                    
Presentation Graphics           French          24.886 kbps                     
Presentation Graphics           German          148.956 kbps                    
Presentation Graphics           Italian         150.885 kbps                    
Presentation Graphics           English         46.785 kbps                     
Presentation Graphics           French          41.322 kbps                     
Presentation Graphics           German          44.702 kbps                     
Presentation Graphics           Italian         42.795 kbps                     
Presentation Graphics           English         2295 kbps                       
* Presentation Graphics         Japanese        18.857 kbps                     
* Presentation Graphics         Japanese        0.421 kbps                     
* Presentation Graphics         Japanese        101.573 kbps                    
* Presentation Graphics         Japanese        31.393 kbps                     
FILES:
Name            Time In         Length          Size            Total Bitrate   
----            -------         ------          ----            -------------   
00600.M2TS      0:00:00.000     0:06:06.240     2,662,582,272   58,160 kbps     
00601.M2TS      0:06:06.240     0:00:48.631     296,497,152     48,774 kbps     
00602.M2TS      0:06:54.872     0:06:17.627     2,736,506,880   57,972 kbps     
00603.M2TS      0:13:12.500     0:00:26.943     174,483,456     51,807 kbps     
00604.M2TS      0:13:39.443     0:20:08.498     8,048,547,840   53,279 kbps     
00605.M2TS      0:33:47.942     0:00:35.744     249,274,368     55,791 kbps     
00606.M2TS      0:34:23.686     0:02:19.973     970,070,016     55,443 kbps     
00607.M2TS      0:36:43.659     0:00:59.768     428,378,112     57,338 kbps     
00608.M2TS      0:37:43.427     0:02:15.635     892,213,248     52,624 kbps     
00609.M2TS      0:39:59.063     0:00:33.533     236,378,112     56,392 kbps     
00610.M2TS      0:40:32.596     0:13:12.041     5,987,444,736   60,476 kbps     
00611.M2TS      0:53:44.637     0:00:38.121     261,642,240     54,907 kbps     
00612.M2TS      0:54:22.759     0:08:25.880     4,032,049,152   63,762 kbps     
00613.M2TS      1:02:48.639     0:00:43.043     269,033,472     50,002 kbps     
00614.M2TS      1:03:31.682     0:02:55.258     1,227,485,184   56,030 kbps     
00615.M2TS      1:06:26.941     0:00:19.728     134,830,080     54,675 kbps     
00616.M2TS      1:06:46.669     0:08:15.453     3,669,448,704   59,249 kbps     
00617.M2TS      1:15:02.122     0:01:05.023     422,541,312     51,986 kbps     
00618.M2TS      1:16:07.145     0:19:53.025     7,946,674,176   53,287 kbps     
00619.M2TS      1:36:00.170     0:00:50.008     324,980,736     51,988 kbps     
00620.M2TS      1:36:50.179     0:25:55.762     11,274,977,280  57,977 kbps     
00621.M2TS      2:02:45.941     0:00:26.860     182,157,312     54,253 kbps     
00622.M2TS      2:03:12.801     0:21:35.877     9,241,522,176   57,051 kbps 

115网盘下载

独立日 [4K UHD二合一原盘DIY/次世代东影上译国配/简繁双语中字/菜改]
Independence Day 1996 2in1 2160p UHD Blu-ray HEVC DTS-HD MA 7 1-fda80@CHDBits[63.98GB]

此内容查看价格为10蓝光币,VIP免费,请先
本站原盘资源均含有中文字幕,仅限115网盘VIP用户下载!

本站提供的所有影视作品均是在网上搜集,任何涉及商业盈利目的均不得使用,否则产生的一切后果将由您自己承担!
该下载内容仅做宽带测试使用,请在下载后24小时内删除。请购买正版!

0

评论0

请先

显示验证码
没有账号? 注册  忘记密码?