黑夜传说 Underworld (2003)

黑夜传说[4K UHD原盘DIY/2in1肉酱版/双语中英特效/次世代国语] [修正补丁]
Underworld 2003 2in1 2160p UHD Blu-ray HEVC TrueHD 7 1 Atmos-fda80@CHDBits[88.61GB]

◎译  名 黑夜传说/决战异世界(台)/妖夜寻狼(港)
◎片  名 Underworld
◎年  代 2003
◎产  地 英国 / 德国 / 匈牙利 / 美国
◎类  别 动作 / 惊悚 / 奇幻
◎语  言 英语
◎上映日期 2003-09-08(多伦多电影节) / 2003-09-19(美国)
◎IMDb评分  7.0/10 from 265,190 users
◎IMDb链接  https://www.imdb.com/title/tt0320691/
◎豆瓣评分 7.5/10 from 91223 users
◎豆瓣链接 https://movie.douban.com/subject/1307527/
◎片  长 121分钟
◎导  演 伦·怀斯曼 Len Wiseman
◎编  剧 凯文·格雷维奥斯 Kevin Grevioux / 伦·怀斯曼 Len Wiseman / Danny McBride Danny McBride
◎主  演 凯特·贝金赛尔 Kate Beckinsale
       斯科特·斯比德曼 Scott Speedman
       麦克·辛 Michael Sheen
       山恩·布罗利 Shane Brolly
       比尔·奈伊 Bill Nighy
       艾尔文·莱德 Erwin Leder
       索菲娅·迈尔斯 Sophia Myles
       罗比·基 Robbie Gee
       温特沃斯·米勒 Wentworth Miller
       凯文·格雷维奥斯 Kevin Grevioux
       兹塔·格罗格 Zita Görög
       汉克·阿莫斯 Hank Amos
       理查德·赛特伦 Richard Cetrone
       Mike Mukatis Mike Mukatis
       Sándor Boros Sándor Boros
       安德烈·巴顿 Andreas Patton
       Danny McBride Danny McBride
       Jázmin Dammak Jázmin Dammak
       Ildikó Kovács Ildikó Kovács
       Ekkehardt Belle Ekkehardt Belle
       Reinhard Brock Reinhard Brock
       Pascal Breuer Pascal Breuer
       布莱恩·斯蒂尔 Brian Steele
       Kurt Carley Kurt Carley
       Zoltan Papp Zoltan Papp
◎标  签 吸血鬼 | 魔幻 | 美国 | 动作 | 科幻 | 奇幻 | 美国电影 | 惊悚
◎简  介
  地球上一直存在着一个黑暗的地下世界。那里,两大种族――吸血鬼和狼人――在斗得你死我活,每一方都以消灭对方种族为最终目标。
  一次,吸血鬼族的“月神”西丽妮(凯特•贝金赛尔 Kate Beckinsale 饰)在追杀几个落败的狼人时发现,狼人正在密谋绑架人类的一名医生麦克尔 (斯科特•斯比德曼 Scott Speedman 饰)。心知狼人必有所图,西丽妮独自前往狼窝查探。不料中了狼人的埋伏,身负重伤之际幸得麦克尔相救。在麦克尔送西丽妮回吸血鬼营地的途中,他意外被一只狼人咬伤了,由此揭开了麦克尔的身世之谜和狼人的阴谋……

DISC INFO:
Disc Title:     Underworld (2003) - 4K Ultra HD
Disc Label:     Underworld 2003 2in1 2160p UHD Blu-ray HEVC TrueHD 7.1
Disc Size:      95,141,545,663 bytes
Protection:     AACS2
Extras:         Ultra HD, BD-Java
BDInfo:         0.7.5.5
PLAYLIST REPORT:
Name:                   00603.MPLS
Length:                 2:13:36.716 (h:m:s.ms)
Size:                   77,604,544,512 bytes
Total Bitrate:          77.44 Mbps
(*) Indicates included stream hidden by this playlist.
VIDEO:
Codec                   Bitrate             Description     
-----                   -------             -----------     
MPEG-H HEVC Video       46410 kbps          2160p / 23.976 fps / 16:9 / Main 10 @ Level 5.1 @ High / 10 bits / HDR10 / BT.2020
AUDIO:
Codec                           Language        Bitrate         Description     
-----                           --------        -------         -----------     
* Dolby TrueHD/Atmos Audio      English         5522 kbps       7.1 / 48 kHz /  4882 kbps / 24-bit (AC3 Embedded: 5.1 / 48 kHz /   640 kbps / DN -31dB)
* DTS-HD Master Audio           English         2362 kbps       5.1 / 48 kHz /  2362 kbps / 16-bit (DTS Core: 5.1 / 48 kHz /  1509 kbps / 16-bit)
* Dolby Digital Audio           French          640 kbps        5.1 / 48 kHz /   640 kbps / DN -31dB
* DTS-HD Master Audio           Italian         2336 kbps       5.1 / 48 kHz /  2336 kbps / 16-bit (DTS Core: 5.1 / 48 kHz /  1509 kbps / 16-bit)
Dolby TrueHD/Atmos Audio        English         5572 kbps       7.1 / 48 kHz /  4932 kbps / 24-bit (AC3 Embedded: 5.1 / 48 kHz /   640 kbps / DN -31dB)
DTS-HD Master Audio             English         2382 kbps       5.1 / 48 kHz /  2382 kbps / 16-bit (DTS Core: 5.1 / 48 kHz /  1509 kbps / 16-bit)
Dolby Digital Audio             French          640 kbps        5.1 / 48 kHz /   640 kbps / DN -31dB
DTS-HD Master Audio             Italian         2352 kbps       5.1 / 48 kHz /  2352 kbps / 16-bit (DTS Core: 5.1 / 48 kHz /  1509 kbps / 16-bit)
DTS-HD Master Audio             Chinese         2210 kbps       5.1 / 48 kHz /  2210 kbps / 16-bit (DTS Core: 5.1 / 48 kHz /  1509 kbps / 16-bit)
SUBTITLES:
Codec                           Language        Bitrate         Description     
-----                           --------        -------         -----------     
Presentation Graphics           English         18.578 kbps                     
Presentation Graphics           English         14.162 kbps                     
* Presentation Graphics         English         18.586 kbps                     
* Presentation Graphics         English         14.167 kbps                     
Presentation Graphics           French          13.111 kbps                     
Presentation Graphics           Italian         14.907 kbps                     
Presentation Graphics           Chinese         17.189 kbps                     
Presentation Graphics           Chinese         17.545 kbps                     
Presentation Graphics           Chinese         22.734 kbps                     
Presentation Graphics           Chinese         23.091 kbps                     
FILES:
Name            Time In         Length          Size            Total Bitrate   
----            -------         ------          ----            -------------   
00365.M2TS      0:00:00.000     0:18:33.487     10,582,444,032  76,031         
00392.M2TS      0:18:33.487     0:03:01.014     1,744,846,848   77,114         
00367.M2TS      0:21:34.501     0:20:47.746     12,416,495,616  79,609         
00393.M2TS      0:42:22.248     0:01:55.115     1,469,196,288   102,103         
00369.M2TS      0:44:17.363     0:02:29.941     1,496,199,168   79,828         
00394.M2TS      0:46:47.304     0:00:46.212     459,393,024     79,526         
00371.M2TS      0:47:33.517     0:04:49.831     2,810,738,688   77,583         
00395.M2TS      0:52:23.348     0:00:47.797     469,850,112     78,640         
00373.M2TS      0:53:11.146     0:04:30.103     2,711,924,736   80,323         
00396.M2TS      0:57:41.249     0:01:27.253     841,156,608     77,123         
00375.M2TS      0:59:08.503     0:00:55.305     534,085,632     77,256         
00405.M2TS      1:00:03.808     0:05:06.597     3,003,150,336   78,361         
00377.M2TS      1:05:10.406     0:01:27.796     821,176,320     74,826         
00398.M2TS      1:06:38.202     0:02:30.066     1,492,998,144   79,591         
00379.M2TS      1:09:08.268     0:06:26.385     3,783,131,136   78,329         
00399.M2TS      1:15:34.654     0:05:06.431     3,077,892,096   80,355         
00381.M2TS      1:20:41.086     0:03:47.352     2,315,728,896   81,485         
00400.M2TS      1:24:28.438     0:08:23.961     4,893,536,256   77,681         
00383.M2TS      1:32:52.399     0:02:59.387     1,788,567,552   79,763         
00401.M2TS      1:35:51.787     0:00:50.383     503,126,016     79,887         
00385.M2TS      1:36:42.171     0:05:29.078     3,305,158,656   80,349         
00402.M2TS      1:42:11.249     0:01:24.959     841,973,760     79,282         
00387.M2TS      1:43:36.209     0:01:22.040     845,279,232     82,426         
00403.M2TS      1:44:58.250     0:06:43.736     4,113,020,928   81,499         
00389.M2TS      1:51:41.986     0:08:46.734     5,373,843,456   81,617         
00404.M2TS      2:00:28.721     0:00:33.116     345,513,984     83,467         
00391.M2TS      2:01:01.837     0:12:34.879     5,564,116,992   58,967         
DISC INFO:
Disc Title:     Underworld (2003) - 4K Ultra HD
Disc Label:     Underworld 2003 2in1 2160p UHD Blu-ray HEVC TrueHD 7.1
Disc Size:      95,141,545,663 bytes
Protection:     AACS2
Extras:         Ultra HD, BD-Java
BDInfo:         0.7.5.5
PLAYLIST REPORT:
Name:                   00601.MPLS
Length:                 2:01:12.264 (h:m:s.ms)
Size:                   70,301,601,792 bytes
Total Bitrate:          77.34 Mbps
(*) Indicates included stream hidden by this playlist.
VIDEO:
Codec                   Bitrate             Description     
-----                   -------             -----------     
MPEG-H HEVC Video       46229 kbps          2160p / 23.976 fps / 16:9 / Main 10 @ Level 5.1 @ High / 10 bits / HDR10 / BT.2020
AUDIO:
Codec                           Language        Bitrate         Description     
-----                           --------        -------         -----------     
Dolby TrueHD/Atmos Audio        English         5530 kbps       7.1 / 48 kHz /  4890 kbps / 24-bit (AC3 Embedded: 5.1 / 48 kHz /   640 kbps / DN -31dB)
DTS-HD Master Audio             English         2365 kbps       5.1 / 48 kHz /  2365 kbps / 16-bit (DTS Core: 5.1 / 48 kHz /  1509 kbps / 16-bit)
Dolby Digital Audio             French          640 kbps        5.1 / 48 kHz /   640 kbps / DN -31dB
DTS-HD Master Audio             Italian         2338 kbps       5.1 / 48 kHz /  2338 kbps / 16-bit (DTS Core: 5.1 / 48 kHz /  1509 kbps / 16-bit)
* Dolby TrueHD/Atmos Audio      English         5568 kbps       7.1 / 48 kHz /  4928 kbps / 24-bit (AC3 Embedded: 5.1 / 48 kHz /   640 kbps / DN -31dB)
* DTS-HD Master Audio           English         2390 kbps       5.1 / 48 kHz /  2390 kbps / 16-bit (DTS Core: 5.1 / 48 kHz /  1509 kbps / 16-bit)
* Dolby Digital Audio           French          640 kbps        5.1 / 48 kHz /   640 kbps / DN -31dB
* DTS-HD Master Audio           Italian         2359 kbps       5.1 / 48 kHz /  2359 kbps / 16-bit (DTS Core: 5.1 / 48 kHz /  1509 kbps / 16-bit)
DTS-HD Master Audio             Chinese         2229 kbps       5.1 / 48 kHz /  2229 kbps / 16-bit (DTS Core: 5.1 / 48 kHz /  1509 kbps / 16-bit)
SUBTITLES:
Codec                           Language        Bitrate         Description     
-----                           --------        -------         -----------     
Presentation Graphics           English         19.834 kbps                     
Presentation Graphics           English         14.635 kbps                     
* Presentation Graphics         English         19.842 kbps                     
* Presentation Graphics         English         14.640 kbps                     
Presentation Graphics           French          13.415 kbps                     
Presentation Graphics           Italian         15.425 kbps                     
Presentation Graphics           Chinese         18.284 kbps                     
Presentation Graphics           Chinese         18.639 kbps                     
Presentation Graphics           Chinese         24.003 kbps                     
Presentation Graphics           Chinese         24.361 kbps                     
FILES:
Name            Time In         Length          Size            Total Bitrate   
----            -------         ------          ----            -------------   
00365.M2TS      0:00:00.000     0:18:33.487     10,582,444,032  76,031         
00366.M2TS      0:18:33.487     0:02:12.423     1,266,321,408   76,501         
00367.M2TS      0:20:45.911     0:20:47.746     12,416,495,616  79,609         
00368.M2TS      0:41:33.657     0:01:26.961     1,158,451,200   106,571         
00369.M2TS      0:43:00.619     0:02:29.941     1,496,199,168   79,828         
00370.M2TS      0:45:30.561     0:00:24.441     239,855,616     78,509         
00371.M2TS      0:45:55.002     0:04:49.831     2,810,738,688   77,583         
00372.M2TS      0:50:44.833     0:00:33.575     332,826,624     79,303         
00373.M2TS      0:51:18.408     0:04:30.103     2,711,924,736   80,323         
00374.M2TS      0:55:48.511     0:00:29.487     295,176,192     80,081         
00375.M2TS      0:56:17.999     0:00:55.305     534,085,632     77,256         
00376.M2TS      0:57:13.304     0:02:18.805     1,370,191,872   78,971         
00377.M2TS      0:59:32.110     0:01:27.796     821,176,320     74,826         
00378.M2TS      1:00:59.906     0:01:44.896     1,043,521,536   79,585         
00379.M2TS      1:02:44.802     0:06:26.385     3,783,131,136   78,329         
00380.M2TS      1:09:11.188     0:03:54.651     2,324,692,992   79,256         
00381.M2TS      1:13:05.839     0:03:47.352     2,315,728,896   81,485         
00382.M2TS      1:16:53.191     0:06:45.947     4,119,951,360   81,192         
00383.M2TS      1:23:39.138     0:02:59.387     1,788,567,552   79,763         
00384.M2TS      1:26:38.526     0:00:50.383     487,163,904     77,353         
00385.M2TS      1:27:28.910     0:05:29.078     3,305,158,656   80,349         
00386.M2TS      1:32:57.988     0:00:40.123     392,638,464     78,286         
00387.M2TS      1:33:38.112     0:01:22.040     845,279,232     82,426         
00388.M2TS      1:35:00.152     0:04:11.793     2,519,341,056   80,045         
00389.M2TS      1:39:11.945     0:08:46.734     5,373,843,456   81,617         
00390.M2TS      1:47:58.680     0:00:38.705     402,579,456     83,209         
00391.M2TS      1:48:37.385     0:12:34.879     5,564,116,992   58,967         

115网盘下载

黑夜传说[4K UHD原盘DIY/2in1肉酱版/双语中英特效/次世代国语] [修正补丁]
Underworld 2003 2in1 2160p UHD Blu-ray HEVC TrueHD 7 1 Atmos-fda80@CHDBits[88.61GB]

此内容查看价格为10蓝光币,VIP免费,请先
本站原盘资源均含有中文字幕,仅限115网盘VIP用户下载!

本站提供的所有影视作品均是在网上搜集,任何涉及商业盈利目的均不得使用,否则产生的一切后果将由您自己承担!
该下载内容仅做宽带测试使用,请在下载后24小时内删除。请购买正版!

0

评论0

请先

显示验证码
没有账号? 注册  忘记密码?