冰冻星球 第二季 Frozen Planet Season 2 (2022)

◎译  名 冰冻星球 第二季/Frozen Planet 2/Frozen Planet II
◎片  名 Frozen Planet Season 2
◎年  代 2022
◎产  地 英国
◎类  别 纪录片
◎语  言 英语
◎上映日期 2022-09-11(英国)
◎IMDb评分  9.1/10 from 616 users
◎IMDb链接  https://www.imdb.com/title/tt9805678/
◎豆瓣评分 9.7/10 from 315 users
◎豆瓣链接 https://douban.com/subject/33387355/
◎集  数 6
◎片  长 60分钟
◎主  演 大卫·爱登堡 David Attenborough

◎简  介

  
  BBC Earth星球系列年度巨制《冰冻星球II》(Frozen Planet II) 在第一季播出11年后重磅回归。由大卫·爱登堡爵士(Sir David Attenborough)担纲解说,引领观众前往地球上的极寒之地,在冰原、在极地、在白雪皑皑的高耸山巅,与野生 动物们一同面对极端环境和全球气候变化带来的挑战,见证生命的脆弱与坚毅。
  
  南北两极、白雪覆盖的森林和北方的平原、遥远的山脉,这些地方有着奇妙而多样化的生态系统,似乎尚未受到人类活动的直接影响。在与世隔绝的地方,有着神秘的顶级猎手:狼群在广阔的雪原上狩猎巨大的野牛,虎鲸将追踪猎物的独门秘籍代代相传,行踪诡秘的东北虎在洁白的雪地上悄然走过……《冰冻星球II》记录下了这些神奇动物的隐秘生活,也揭示了迫在眉睫的剧变。

DISC INFO:

Disc Title:     Frozen Planet II - Disc 1
Disc Label:     DISC1
Disc Size:      71,437,922,079 bytes
Protection:     AACS2
Extras:         Ultra HD
BDInfo:         0.7.5.5

PLAYLIST REPORT:

Name:                   00022.MPLS
Length:                 2:36:34.760 (h:m:s.ms)
Size:                   70,965,356,160 bytes
Total Bitrate:          60.43 Mbps

VIDEO:

Codec                   Bitrate             Desc‍ription     
-----                   -------             -----------     
MPEG-H HEVC Video       48959 kbps          2160p / 23.976 fps / 16:9 / Main 10 @ Level 5.1 @ High / 10 bits / HDR10 / BT.2020

AUDIO:

Codec                           Language        Bitrate         Desc‍ription     
-----                           --------        -------         -----------     
DTS-HD Master Audio             English         2131 kbps       5.1 / 48 kHz /  2131 kbps / 16-bit (DTS Core: 5.1 / 48 kHz /  1509 kbps / 16-bit)
Dolby TrueHD/Atmos Audio        English         5297 kbps       7.1 / 48 kHz /  4657 kbps / 24-bit (AC3 Embedded: 5.1-EX / 48 kHz /   640 kbps / DN -31dB)

SUBTITLES:

Codec                           Language        Bitrate         Desc‍ription     
-----                           --------        -------         -----------     
Presentation Graphics           English         29.066 kbps                     
Presentation Graphics           Chinese         26.745 kbps                     
Presentation Graphics           Chinese         25.648 kbps                     
Presentation Graphics           Chinese         38.107 kbps                     
Presentation Graphics           Chinese         38.501 kbps                     

FILES:

Name            Time In         Length          Size            Total Bitrate   
----            -------         ------          ----            -------------   
00017.M2TS      0:00:00.000     0:52:11.962     23,029,827,456  58,825         
00018.M2TS      0:52:11.962     0:51:47.312     24,771,903,360  63,777         
00021.M2TS      1:43:59.274     0:52:35.485     23,163,625,344  58,726   

DISC INFO:

Disc Title:     Frozen Planet II - Disc 2
Disc Label:     DISC2
Disc Size:      81,829,382,687 bytes
Protection:     AACS2
Extras:         Ultra HD
BDInfo:         0.7.5.5

PLAYLIST REPORT:

Name:                   00028.MPLS
Length:                 0:51:53.902 (h:m:s.ms)
Size:                   21,233,997,696 bytes
Total Bitrate:          54.55 Mbps

VIDEO:

Codec                   Bitrate             Desc‍ription     
-----                   -------             -----------     
MPEG-H HEVC Video       43309 kbps          2160p / 23.976 fps / 16:9 / Main 10 @ Level 5.1 @ High / 10 bits / HDR10 / BT.2020

AUDIO:

Codec                           Language        Bitrate         Desc‍ription     
-----                           --------        -------         -----------     
DTS-HD Master Audio             English         2131 kbps       5.1 / 48 kHz /  2131 kbps / 16-bit (DTS Core: 5.1 / 48 kHz /  1509 kbps / 16-bit)
Dolby TrueHD/Atmos Audio        English         5189 kbps       7.1 / 48 kHz /  4549 kbps / 24-bit (AC3 Embedded: 5.1-EX / 48 kHz /   640 kbps / DN -31dB)

SUBTITLES:

Codec                           Language        Bitrate         Desc‍ription     
-----                           --------        -------         -----------     
Presentation Graphics           English         49.425 kbps                     
Presentation Graphics           Chinese         46.521 kbps                     
Presentation Graphics           Chinese         47.615 kbps                     
Presentation Graphics           Chinese         72.845 kbps                     
Presentation Graphics           Chinese         73.932 kbps                     

115网盘下载

冰冻星球 第二季 [4K UHD原盘DIY简繁英特效四字幕][修正最终版本][142.74GB]
Frozen Planet II 2022 2160p V3 UHD Blu-ray HEVC Atmos TrueHD7 1-BHYS@OurBits

资源下载此资源下载价格为10蓝光币,VIP免费,请先
本站原盘资源均含有中文字幕,仅支持115网盘VIP用户下载!
资源下载
下载价格10 蓝光币
VIP免费
本站原盘资源均含有中文字幕,仅支持115网盘VIP用户下载!

本站提供的所有影视作品均是在网上搜集,任何涉及商业盈利目的均不得使用,否则产生的一切后果将由您自己承担!
该下载内容仅做宽带测试使用,请在下载后24小时内删除。请购买正版!

0

评论0

请先

显示验证码
没有账号? 注册  忘记密码?