这个杀手不太冷 Léon (1994)

这个杀手不太冷 [4K UHD原盘DIY 剧场版/加长版 央视国配/国配简繁/简体/特效字幕/BDJ菜单新增按钮]Leon The Professional 1994 2in1 2160p UHD Blu-ray HEVC Atmos TrueHD 7.1-nn@CHDBits[89.81GB]

◎译   名  这个杀手不太冷 / Leon / Leon: The Professional / 杀手莱昂 / 杀手里昂 / 终极追杀令(台)
◎片   名  Léon
◎年   代  1994
◎产   地  法国 / 美国
◎类   别  剧情 / 动作 / 犯罪
◎语   言  英语 / 意大利语 / 法语
◎上映 日期  1994-09-14(法国)
◎IMDb评分  8.6/10 from 1,118,859 users
◎IMDb链接  https://www.imdb.com/title/tt0110413/
◎豆瓣 评分  9.4/10 from 2109146 users
◎豆瓣 链接  https://movie.douban.com/subject/1295644/
◎烂 番 茄   73%
◎Metacritic   64/100
◎片   长  110分钟(剧场版)
◎导   演  吕克·贝松 Luc Besson
◎编   剧  吕克·贝松 Luc Besson
◎主   演  让·雷诺 Jean Reno
        娜塔莉·波特曼 Natalie Portman
        加里·奥德曼 Gary Oldman
        丹尼·爱罗 Danny Aiello
        彼得·阿佩尔 Peter Appel
        迈克尔·巴达鲁科 Michael Badalucco
        艾伦·格里尼 Ellen Greene
        伊丽莎白·瑞根 Elizabeth Regen
        卡尔·马图斯维奇 Carl J. Matusovich
        弗兰克·赛格 Frank Senger
        麦温 Maïwenn
        乔治·马丁 George Martin
        罗伯特·拉萨多 Robert LaSardo
        亚当·布斯奇 Adam Busch
        马里奥·托迪斯科 Mario Todisco
        萨米·纳塞利 Samy Naceri
        让·雨果·安格拉德 Jean-Hugues Anglade
        埃莱娜·卡多纳 Hélène Cardona
        沈晓谦 Xiaoqian Shen
        大塚明夫 Akio Ôtsuka
        Keith A. Glascoe Keith A. Glascoe

◎简  介

  里昂(让·雷诺饰)是名孤独的职业杀手,受人雇佣。一天,邻居家小姑娘马蒂尔达(纳塔丽·波特曼饰)敲开他的房门,要求在他那里暂避杀身之祸。原来邻居家的主人是警方缉毒组的眼线,只因贪污了一小包毒品而遭恶警(加里·奥德曼饰)杀害全家的惩罚。马蒂尔达得到里昂的留救,幸免于难,并留在里昂那里。里昂教小女孩使枪,她教里昂法文,两人关系日趋亲密,相处融洽。
  女孩想着去报仇,反倒被抓,里昂及时赶到,将女孩救回。混杂着哀怨情仇的正邪之战渐次升级,更大的冲突在所难免……

◎获奖情况 (共1项)
  第19届日本电影学院奖 (1996)
  最佳外语片(提名)

DISC INFO:

Disc Title:     Leon The Professional 1994 2in1 2160p UHD Blu-ray HEVC Atmos TrueHD 7.1-nn@CHDBits
Disc Size:      96,429,080,910 bytes
Protection:     AACS2
Extras:         Ultra HD, BD-Java
BDInfo:         0.7.5.3 (compatible layout created by DVDFab 11.0.4.5)

PLAYLIST REPORT:

Name:                   00506.MPLS  
Length:                 2:12:57.969 (h:m:s.ms)
Size:                   88,966,963,200 bytes
Total Bitrate:          89.21 Mbps

(*) Indicates included stream hidden by this playlist.

VIDEO:

Codec                   Bitrate             Description    
-----                   -------             -----------    
MPEG-H HEVC Video       64818 kbps          2160p / 23.976 fps / 16:9 / Main 10 @ Level 5.1 @ High / 4:2:0 / 10 bits / HDR10 / BT.2020 /

AUDIO:

Codec                           Language        Bitrate         Description    
-----                           --------        -------         -----------    
Dolby TrueHD/Atmos Audio        English         5010 kbps       7.1-Atmos / 48 kHz / 5010 kbps / 24-bit (AC3 Core: 5.1 / 48 kHz / 640 kbps)
Dolby Digital Audio             French          640 kbps        5.1 / 48 kHz / 640 kbps
Dolby Digital Audio             Portuguese      640 kbps        5.1 / 48 kHz / 640 kbps
DTS-HD Master Audio             Chinese         2355 kbps       7.1 / 48 kHz / 2355 kbps / 16-bit (DTS Core: 5.1-ES / 48 kHz / 1509 kbps / 16-bit)  央视国配
* Dolby TrueHD/Atmos Audio      English         5010 kbps       7.1-Atmos / 48 kHz / 5010 kbps / 24-bit (AC3 Core: 5.1 / 48 kHz / 640 kbps)
* Dolby Digital Audio           French          640 kbps        5.1 / 48 kHz / 640 kbps
* Dolby Digital Audio           Portuguese      640 kbps        5.1 / 48 kHz / 640 kbps
* DTS-HD Master Audio           Chinese         2355 kbps       7.1 / 48 kHz / 2355 kbps / 16-bit (DTS Core: 5.1-ES / 48 kHz / 1509 kbps / 16-bit)

SUBTITLES:

Codec                           Language        Bitrate         Description    
-----                           --------        -------         -----------    
Presentation Graphics           English         25.38 kbps                      
Presentation Graphics           English         22.872 kbps                    
Presentation Graphics           French          20.817 kbps                    
Presentation Graphics           Portuguese      18.619 kbps                    
Presentation Graphics           Spanish         20.527 kbps                    
Presentation Graphics           Chinese         25.744 kbps                     国配简体中文(黑边)
Presentation Graphics           Chinese         26.344 kbps                     国配繁体中文(黑边)  
Presentation Graphics           Chinese         24.995 kbps                     简体中文(黑边)  
Presentation Graphics           Chinese         25.582 kbps                     繁体中文(黑边)  
Presentation Graphics           Chinese         35.87 kbps                      简英双语(黑边)  
Presentation Graphics           Chinese         36.447 kbps                     繁英双语(黑边)  
Presentation Graphics           Chinese         25.744 kbps                     国配简体中文(画面)  
Presentation Graphics           Chinese         26.344 kbps                     国配繁体中文(画面)
Presentation Graphics           Chinese         24.995 kbps                     简体中文(画面)
Presentation Graphics           Chinese         25.582 kbps                     繁体中文(画面)
Presentation Graphics           Chinese         35.871 kbps                     简英双语(画面)
Presentation Graphics           Chinese         36.447 kbps                     繁英双语(画面)

FILES:

Name            Time In         Length          Size            Total Bitrate  
----            -------         ------          ----            -------------  
00336.M2TS      0:00:00.000     0:01:52.695     1,217,021,952   86,393 kbps    
00338.M2TS      0:01:52.695     0:43:49.960     29,873,080,320  90,870 kbps    
00339.M2TS      0:45:42.656     0:01:00.518     665,825,280     88,015 kbps    
00340.M2TS      0:46:43.175     0:21:55.314     14,870,968,320  90,448 kbps    
00342.M2TS      1:08:38.489     0:20:03.785     13,638,346,752  90,636 kbps    
00354.M2TS      1:28:42.275     0:09:22.478     6,438,414,336   91,572 kbps    
00356.M2TS      1:38:04.753     0:05:43.259     3,855,028,224   89,845 kbps    
00351.M2TS      1:43:48.013     0:22:47.699     15,578,247,168  91,120 kbps    
00343.M2TS      2:06:35.713     0:06:22.256     2,830,030,848   59,227 kbps    

DISC INFO:

Disc Title:     Leon The Professional 1994 2in1 2160p UHD Blu-ray HEVC Atmos TrueHD 7.1-nn@CHDBits
Disc Size:      96,429,080,910 bytes
Protection:     AACS2
Extras:         Ultra HD, BD-Java
BDInfo:         0.7.5.3 (compatible layout created by DVDFab 11.0.4.5)

PLAYLIST REPORT:

Name:                   00505.MPLS  
Length:                 1:49:27.602 (h:m:s.ms)
Size:                   73,990,318,080 bytes
Total Bitrate:          90.13 Mbps

(*) Indicates included stream hidden by this playlist.

VIDEO:

Codec                   Bitrate             Description    
-----                   -------             -----------    
MPEG-H HEVC Video       65561 kbps          2160p / 23.976 fps / 16:9 / Main 10 @ Level 5.1 @ High / 4:2:0 / 10 bits / HDR10 / BT.2020 /

AUDIO:

Codec                           Language        Bitrate         Description    
-----                           --------        -------         -----------    
Dolby TrueHD/Atmos Audio        English         5073 kbps       7.1-Atmos / 48 kHz / 5073 kbps / 16-bit (AC3 Core: 5.1 / 48 kHz / 640 kbps)
Dolby Digital Audio             French          640 kbps        5.1 / 48 kHz / 640 kbps
Dolby Digital Audio             Portuguese      640 kbps        5.1 / 48 kHz / 640 kbps
DTS-HD Master Audio             Chinese         2360 kbps       7.1 / 48 kHz / 2360 kbps / 16-bit (DTS Core: 5.1-ES / 48 kHz / 1509 kbps / 16-bit)  央视国配
* DTS-HD Master Audio           Chinese         2360 kbps       7.1 / 48 kHz / 2360 kbps / 16-bit (DTS Core: 5.1-ES / 48 kHz / 1509 kbps / 16-bit)
* Dolby Digital Audio           French          640 kbps        5.1 / 48 kHz / 640 kbps
* Dolby TrueHD/Atmos Audio      English         5074 kbps       7.1-Atmos / 48 kHz / 5074 kbps / 24-bit (AC3 Core: 5.1 / 48 kHz / 640 kbps)
* Dolby Digital Audio           Portuguese      640 kbps        5.1 / 48 kHz / 640 kbps

SUBTITLES:

Codec                           Language        Bitrate         Description    
-----                           --------        -------         -----------    
Presentation Graphics           English         25.221 kbps                    
Presentation Graphics           English         22.355 kbps                    
Presentation Graphics           French          19.84 kbps                      
Presentation Graphics           Portuguese      17.409 kbps                    
Presentation Graphics           Spanish         19.697 kbps                    
Presentation Graphics           Chinese         27.326 kbps                     国配简体中文(黑边)
Presentation Graphics           Chinese         27.954 kbps                     国配繁体中文(黑边)  
Presentation Graphics           Chinese         26.532 kbps                     简体中文(黑边)  
Presentation Graphics           Chinese         27.142 kbps                     繁体中文(黑边)  
Presentation Graphics           Chinese         37.201 kbps                     简英双语(黑边)  
Presentation Graphics           Chinese         37.801 kbps                     繁英双语(黑边)  
Presentation Graphics           Chinese         27.326 kbps                     国配简体中文(画面)  
Presentation Graphics           Chinese         27.954 kbps                     国配繁体中文(画面)
Presentation Graphics           Chinese         26.532 kbps                     简体中文(画面)
Presentation Graphics           Chinese         27.142 kbps                     繁体中文(画面)
Presentation Graphics           Chinese         37.202 kbps                     简英双语(画面)
Presentation Graphics           Chinese         37.801 kbps                     繁英双语(画面)

FILES:

Name            Time In         Length          Size            Total Bitrate  
----            -------         ------          ----            -------------  
00001.M2TS      0:00:00.000     0:01:52.737     1,225,568,256   86,967 kbps    
00338.M2TS      0:01:52.737     0:43:49.960     29,873,080,320  90,870 kbps    
00337.M2TS      0:45:42.698     0:00:39.497     433,778,688     87,858 kbps    
00340.M2TS      0:46:22.196     0:21:55.314     14,870,968,320  90,448 kbps    
00341.M2TS      1:08:17.510     0:03:02.765     2,044,145,664   89,476 kbps    
00354.M2TS      1:11:20.275     0:09:22.478     6,438,414,336   91,572 kbps    
00355.M2TS      1:20:42.754     0:00:29.779     334,700,544     89,913 kbps    
00351.M2TS      1:21:12.534     0:22:47.699     15,578,247,168  91,120 kbps    
00347.M2TS      1:44:00.233     0:05:27.368     3,191,414,784   77,989 kbps    

115网盘下载

这个杀手不太冷 [4K UHD原盘DIY 剧场版/加长版 央视国配/国配简繁/简体/繁体/简英/繁英特效字幕/BDJ菜单新增按钮]
Leon The Professional 1994 2in1 2160p UHD Blu-ray HEVC Atmos TrueHD 7.1-nn@CHDBits[89.81GB]

此内容查看价格为10蓝光币,VIP免费,请先
本站原盘资源均含有中文字幕,仅限115网盘VIP用户下载!

本站提供的所有影视作品均是在网上搜集,任何涉及商业盈利目的均不得使用,否则产生的一切后果将由您自己承担!
该下载内容仅做宽带测试使用,请在下载后24小时内删除。请购买正版!

0

评论0

请先

显示验证码
没有账号? 注册  忘记密码?