权力的游戏 第一季 Game of Thrones Season 1 (2011)

◎译  名 权力的游戏 第一季/冰与火之歌:权力的游戏 第一季/王座游戏 第一季/A Song of Ice and Fire: Game of Thrones Season 1
◎片  名 Game of Thrones Season 1
◎年  代 2011
◎产  地 美国/英国
◎类  别 剧情/奇幻/冒险
◎语  言 英语/多斯拉克语
◎上映日期 2011-04-17(美国)
◎IMDb链接  https://www.imdb.com/title/tt0944947/
◎豆瓣评分 9.4/10 from 303783 users
◎豆瓣链接 https://douban.com/subject/3016187/
◎集  数 10
◎片  长 60分钟
◎导  演 蒂莫西·范·帕腾 Timothy Van Patten / 布莱恩·柯克 Brian Kirk / 丹尼尔·米纳汉 Daniel Minahan / 阿兰·泰勒 Alan Taylor
◎编  剧 戴维·贝尼奥夫 David Benioff / D·B·威斯 D.B. Weiss / 乔治·马丁 George R.R. Martin / 布莱恩·考格曼 Bryan Cogman / Jane Espenson
◎主  演 伊萨克·亨普斯特德-怀特 Isaac Hempstead-Wright
       查尔斯·丹斯 Charles Dance
       约翰·C·布莱德利 John C. Bradley
       罗恩·多纳基 Ron Donachie
       伊恩·麦克尔希尼 Ian McElhinney
       肖恩·宾 Sean Bean
       米歇尔·费尔利 Michelle Fairley
       艾米莉亚·克拉克 Emilia Clarke
       伊恩·格雷 Iain Glen
       基特·哈灵顿 Kit Harington
       尼古拉·科斯特-瓦尔道 Nikolaj Coster-Waldau
       阿米拉·加扎拉 Amira Ghazalla
       米尔托斯·耶罗勒曼 Miltos Yerolemou
       埃罗斯·维拉霍斯 Eros Vlahos
       伊莱耶斯·加贝尔 Elyes Gabel
       阿特·帕金森 Art Parkinson
       爱丽达·阿察瑞儿 Amrita Acharia
       侬索·阿诺斯 Nonso Anozie
       伊恩·怀特 Ian Whyte
       约瑟夫·阿尔京 Josef Altin
       大卫·布拉德利 David Bradley
       马克·斯坦利 Mark Stanley
◎标  签 美剧 | 史诗 | HBO | 奇幻 | 魔幻 | 美国 | 电视剧 | 2011
◎简  介
  
  《权力的游戏》是一部中世纪史诗奇幻题材的电视连续剧,该剧以美国作家乔治·R·R·马丁的奇幻巨作《冰与火之歌》七部曲为基础改编创作。
  
  故事背景中虚构的世界,分为两片大陆:位于西面的“日落国度”维斯特洛;位于东面的类似亚欧大陆。维斯特洛大陆边境处发现远古传说中早已灭绝的生物开始,危险也渐渐在靠近这里。这片大陆的临冬城主暨北境统领艾德史塔克家族也迎来了老友兼国王劳勃·拜拉席恩的来访。国王希望艾德·史塔克(肖恩·宾 Sean Bean 饰)能担任首相一职,对抗企图夺取铁王座的叛军。危情一触即发,整个王国看似平和的表面下却是波涛暗涌。权高位重的拜拉席恩家族、勇敢善良的史塔克家族、企图谋取王位的坦格利安家族、有着不可告人秘密的兰尼斯特家族。这些家族各怀鬼胎,这个国家将会陷入一场混战.....
  
◎获奖情况
  第69届金球奖  (2012)
  电视类最佳剧情类剧集(提名)
  电视类最佳男配角 彼特·丁拉基
  
  第28届MTV电影奖  (2019)
  MTV电影奖最佳英雄形象(提名) 麦茜·威廉姆斯
  
  第27届MTV电影奖  (2018)
  MTV电影奖剧集最佳表演(提名) 麦茜·威廉姆斯
  MTV电影奖最佳英雄形象(提名) 艾米莉亚·克拉克
  
  第12届美国视觉效果协会奖  (2014)
  最佳广告/广播节目CG背景(提名) PatrickZentis / MayurPatel
  
  第12届美国电影学会奖  (2011)
  年度佳剧
  
  第22届上海电视节白玉兰奖  (2016)
  电视连续剧最佳海外电视剧(长)
  
  第6届豆瓣电影年度榜单  (2019)
  2010s剧集(提名)

各集信息基本一致,这里仅提供第一碟第一集的信息。

DISC INFO:

Disc Title: Game Of Thrones Season 1 Disc 1
Disc Label: GOTUHD_ S01_Disc1
Disc Size: 89,806,100,218 bytes
Protection: AACS2
Extras: Ultra HD, BD-Java
BDInfo: 0.7.5.8

PLAYLIST REPORT:

Name: 00800.MPLS
Length: 1:01:40.113 (h:m:s.ms)
Size: 30,632,803,776 bytes
Total Bitrate: 66.23 Mbps

(*) Indicates included stream hidden by this playlist.

VIDEO:

Codec Bitrate Desc‍ription
----- ------- -----------
MPEG-H HEVC Video 51739 kbps 2160p / 23.976 fps / 16:9 / Main 10 @ Level 5.1 @ High / 10 bits / HDR10 / BT.2020
*MPEG-H HEVC Video 3338 kbps 1080p / 23.976 fps / 16:9 / Main 10 @ Level 5.1 @ High / 10 bits / Dolby Vision / BT.2020

AUDIO:

Codec Language Bitrate Desc‍ription
----- -------- ------- -----------
Dolby Digital Audio English 640 kbps 5.1 / 48 kHz / 640 kbps / DN -31dB
Dolby TrueHD/Atmos Audio English 5696 kbps 7.1 / 48 kHz / 5056 kbps / 24-bit (AC3 Embedded: 5.1-EX / 48 kHz / 640 kbps / DN -31dB)
Dolby Digital Audio English 448 kbps 5.1 / 48 kHz / 448 kbps / DN -31dB

SUBTITLES:

Codec Language Bitrate Desc‍ription
----- -------- ------- -----------
Presentation Graphics English 32.928 kbps
Presentation Graphics Chinese 18.811 kbps 原盘繁中
Presentation Graphics Chinese 37.587 kbps 简体特效
Presentation Graphics Chinese 37.448 kbps 繁体特效
Presentation Graphics Chinese 61.647 kbps 简英特效
Presentation Graphics Chinese 61.361 kbps 繁英特效
Presentation Graphics Chinese 157.860 kbps简英特效 衣柜字幕组

FILES:

Name Time In Length Size Total Bitrate
---- ------- ------ ---- -------------
00045.M2TS 0:00:00.000 1:01:40.113 30,632,803,776 66,230
00047.M2TS 0:00:00.000 0:57:17.100 29,228,119,488 68,028
00046.M2TS 0:00:00.000 0:55:20.358 28,249,374,144 68,062

115网盘下载

权力的游戏 第一季 10集全 [4K UHD美版原盘繁中DIY 简繁+简繁英双语特效五字幕]
Game of Thrones S01 2160p UHD Blu-ray HEVC Atmos TrueHD 7 1-PWt@OurBits[302.41GB]

此内容查看价格为10蓝光币,VIP免费,请先
本站原盘资源均含有中文字幕,仅支持115网盘VIP用户下载!

本站提供的所有影视作品均是在网上搜集,任何涉及商业盈利目的均不得使用,否则产生的一切后果将由您自己承担!
该下载内容仅做宽带测试使用,请在下载后24小时内删除。请购买正版!

0

评论0

请先

显示验证码
没有账号? 注册  忘记密码?