权力的游戏 第七季 Game of Thrones Season 7 (2017)

◎译   名  权力的游戏 第七季 / A Song of Ice and Fire: Game of Thrones / 冰与火之歌:权力的游戏 / 王座游戏
◎片   名  Game of Thrones Season 7
◎年   代  2017
◎产   地  美国
◎类   别  剧情 / 奇幻 / 冒险
◎语   言  英语
◎上映 日期  2017-07-16(美国)
◎IMDb评分  8.5/10 from 50298 users
◎IMDb链接  https://www.imdb.com/title/tt5654088/
◎豆瓣 评分  9.2/10 from 203613 users
◎豆瓣 链接  https://movie.douban.com/subject/26235354/
◎集   数  7
◎片   长  60分钟
◎导   演  杰雷米·波德斯瓦 Jeremy Podeswa / 马克·米罗 Mark Mylod / 马特·沙克曼 Matt Shakman / 阿兰·泰勒 Alan Taylor
◎编   剧  布莱恩·考格曼 Bryan Cogman / 戴维·贝尼奥夫 David Benioff / 戴夫·希尔 Dave Hill / D·B·威斯 D.B. Weiss / 乔治·马丁 George R.R. Martin
◎主   演  艾米莉亚·克拉克 Emilia Clarke
        基特·哈灵顿 Kit Harington
        彼特·丁拉基 Peter Dinklage
        苏菲·特纳 Sophie Turner
        麦茜·威廉姆斯 Maisie Williams
        琳娜·海蒂 Lena Headey
        伊萨克·亨普斯特德-怀特 Isaac Hempstead-Wright
        尼古拉·科斯特-瓦尔道 Nikolaj Coster-Waldau
        约翰·布莱德利 John Bradley
        阿尔菲·艾伦 Alfie Allen
        皮鲁·埃斯贝克 Pilou Asbæk
        吉姆·布劳德本特 Jim Broadbent
        格温多兰·克里斯蒂 Gwendoline Christie
        利亚姆·坎宁安 Liam Cunningham
        娜塔莉·伊曼纽尔 Nathalie Emmanuel
        杰罗姆·弗林 Jerome Flynn
        艾丹·吉伦 Aidan Gillen
        艾德·希兰 Ed Sheeran
        伊恩·格雷 Iain Glen
        康勒斯·希尔 Conleth Hill
        克里斯托弗·海维尤 Kristofer Hivju
◎简  介

  故事紧接着上一季继续发展。丹妮莉丝(艾米莉亚·克拉克 Emilia Clarke 饰)率领着她的军师们和无垢者大军终于返回了一切开始的地方——龙石岛,在那里,她同她的盟友们汇合,在提利昂(彼特·丁拉基 Peter Dinklage 饰)的建议下,她飞鸽传书给远在北方的琼恩(基特·哈灵顿 Kit Harington 饰),试图得到他的臣服。
  那边厢,瑟曦(琳娜·海蒂 Lena Headey 饰)的武断和残暴令国家陷入了四面楚歌的境地,只有詹姆(尼可拉·科斯特-瓦尔道 Nikolaj Coster-Waldau 饰)依然不离不弃的守候在她的身后。镜头转向北境,琼恩和珊莎(索菲·特纳 Sophie Turner 饰)之间的分歧越来越大,与此同时,他收到了身在大学城的山姆威尔(约翰·布莱德利 John Bradley)的来信,信上说在龙石岛的下面,埋藏着数量巨大的龙晶,这是唯一能够抵挡异鬼入侵的武器。

DISC INFO:

Disc Title:     Game Of Thrones Season 7 Disc 1
Disc Label:     Game.of.Thrones.S07.Disc1 2160p.UHD.Blu-ray.HEVC.Atmos.TrueHD.7.1-PWt@OurBits
Disc Size:      90,955,754,081 bytes
Protection:     AACS2
Extras:         Ultra HD, BD-Java
BDInfo:         0.7.5.8

PLAYLIST REPORT:

Name:                   00803.MPLS
Length:                 2:59:13.200 (h:m:s.ms)
Size:                   89,105,479,488 bytes
Total Bitrate:          66.29 Mbps

(*) Indicates included stream hidden by this playlist.

VIDEO:

Codec                   Bitrate             Desc‍ription     
-----                   -------             -----------     
MPEG-H HEVC Video       51947 kbps          2160p / 23.976 fps / 16:9 / Main 10 @ Level 5.1 @ High / 10 bits / HDR10 / BT.2020
* MPEG-H HEVC Video     3597 kbps           1080p / 23.976 fps / 16:9 / Main 10 @ Level 5.1 @ High / 10 bits / Dolby Vision / BT.2020

AUDIO:

Codec                           Language        Bitrate         Desc‍ription     
-----                           --------        -------         -----------     
Dolby Digital Audio             English         640 kbps        5.1 / 48 kHz /   640 kbps / DN -27dB
Dolby TrueHD/Atmos Audio        English         4637 kbps       7.1 / 48 kHz /  3997 kbps / 24-bit (AC3 Embedded: 5.1-EX / 48 kHz /   640 kbps / DN -31dB)
Dolby Digital Audio             English         448 kbps        5.1 / 48 kHz /   448 kbps / DN -27dB

SUBTITLES:

Codec                           Language        Bitrate         Desc‍ription     
-----                           --------        -------         -----------     
Presentation Graphics           English         38.556 kbps                     
Presentation Graphics           Chinese         29.089 kbps  原盘繁中                  
Presentation Graphics           Chinese         116.072 kbps 简体特效                  
Presentation Graphics           Chinese         116.039 kbps 繁体特效                  
Presentation Graphics           Chinese         161.565 kbps 简英特效                  
Presentation Graphics           Chinese         161.495 kbps 繁英特效                  
Presentation Graphics           Chinese         206.803 kbps 简英特效                  

FILES:

Name            Time In         Length          Size            Total Bitrate   
----            -------         ------          ----            -------------   
00000.M2TS      0:00:00.000     0:58:41.142     29,379,653,568  66,749         
00001.M2TS      0:58:41.142     0:58:06.816     28,607,807,424  65,635         
00006.M2TS      1:56:47.959     1:02:25.241     31,118,018,496  66,468

115网盘下载

权力的游戏 第七季 7集全 [4K UHD美版原盘繁中DIY简繁+简繁英双语特效五字幕]
Game of Thrones S07 2160p UHD Blu-ray HEVC Atmos TrueHD 7 1-PWt@OurBits[224.99GB]

此内容查看价格为10蓝光币,VIP免费,请先
本站原盘资源均含有中文字幕,仅支持115网盘VIP用户下载!

本站提供的所有影视作品均是在网上搜集,任何涉及商业盈利目的均不得使用,否则产生的一切后果将由您自己承担!
该下载内容仅做宽带测试使用,请在下载后24小时内删除。请购买正版!

0

评论0

请先

显示验证码
没有账号? 注册  忘记密码?